小众纪录片影视聚合

 找回密码
 立即注册
查看: 8|回复: 0

[蓝光电影] [更 早][日本][剧情][WEB-4K]日本沉没[简繁英字幕].Submersion.of.Japan.1973.BluRay.2160p.DTS-HD.MA5.1.SDR.x265.10bit-Dr

[复制链接]

116万

主题

116万

帖子

116万

积分

超级版主

Rank: 8Rank: 8

积分
1167997
发表于 2024-7-9 21:25:01 | 显示全部楼层 |阅读模式


[更 早][日本][剧情][WEB-4K]日本沉没[简繁英字幕].Submersion.of.Japan.1973.BluRay.2160p.DTS-HD.MA5.1.SDR.x265.10bit-Dr

完整标题:日本沉没[简繁英字幕].Submersion.of.Japan.1973.BluRay.2160p.DTS-HD.MA5.1.SDR.x265.10bit-DreamHD 31.38GB
◎标  题 日本沉没
◎译  名 Submersion of Japan / Japan Sinks / Tidal Wave
◎片  名 日本沈没
◎年  代 1973
◎产  地 日本
◎类  别 剧情 / 科幻 / 惊悚
◎语  言 日语
◎上映日期 1973-12-29(日本)
◎IMDb评分 5.5/10 (460人评价)
◎IMDb链接 https://www.imdb.com/title/tt0070447/
◎豆瓣评分 6.7/10 (2986人评价)
◎豆瓣链接 https://movie.douban.com/subject/1304740/
◎片  长 143分钟(日本) / 82分钟(美国)
◎导  演 森谷司郎 Shirô Moritani
       山际永三 Eizo Yamagiwa
       麦·安迪 Andrew Meyer
◎编  剧 桥本忍 Shinobu Hashimoto
       小松左京 Sakyo Komatsu
       麦·安迪 Andrew Meyer
◎演  员 小林桂树 Keiju Kobayashi
       藤冈弘 Hiroshi Fujioka
       石田良子 Ayumi Ishida
       泷田裕介 Yûsuke Takita
       二谷英明 Hideaki Nitani
       村井国夫 Kunio Murai
       夏八木勋 Isao Natsuyagi
       丹波哲郎 Tetsurô Tanba
       罗恩·格林 Lorne Greene
       岛田正吾 Shogo Shimada
       约翰·藤冈 John Fujioka
       中村伸郎 Nobuo Nakamura
       中岛春雄 Haruo Nakajima
       乔·丹特 Joe Dante
       苏珊·桑内特 Susan Sennett
       Clifford A. Pellow Clifford A. Pellow
       菲利普·罗斯 Philip Roth
       中村哲 Tetsu Nakamura
       麦·安迪 Andrew Meyer
       Marvin Miller Marvin Miller
       中丸忠雄 Nakamaru Tadao
       拉尔夫·詹姆斯 Ralph James
       柄本明 Akira Emoto
       早川雄三 Yuzo Hayakawa
       石坂浩二 Kôji Ishizaka
       神谷诚 Makoto Kamiya
       加藤和夫 Kazuo Katô
       熊谷卓三 Takuzô Kumagai
       国村隼 Jun Kunimura
       草彅刚 Tsuyoshi Kusanagi
       神山繁 Shigeru Kôyama
       森干太 Kanta Mori
       名古屋章 Akira Nagoya
       尾上克郎 Katsuro Onoue
       铃木瑞穗 Mizuho Suzuki
       高桥昌也 Masaya Takahashi
       吉田日出子 Hideko Yoshida
       童自荣 Zirong Tong
       高野浩幸 Hiroyuki Takano
       佐原健二 Kenji Sahara
◎简  介
    为了探明日本列岛一系列的异常地壳运动情况,地球物理学者田所雄介博士(小林桂树 饰)与助手幸长信彦(泷田裕介 饰)乘坐小野寺俊夫(藤冈弘 饰)驾驶的潜艇出海考察。在小笠原群岛附近的海沟处,海底莫名其妙的乱泥流令博士忧心忡忡。经过对各方材料缜密慎重的调查,田所博士作出一个震惊全国乃至世界的预测“由于地球变动,日本即将在两年之内完全沉入海底”。他的预测起初并未得到政府的完全信任,然而在此之后各地强烈地震相继爆发,休灭火山也重新喷发,事态正以出乎意料的速度恶化。在这个与世隔绝的岛国,人民陷入前所未有的疯狂之中……                                    本片根据小松左京的同名原作改编。
点击图片可查看大图
软字幕无法在截图上展现,HDR版本/杜比视界版本截图会出现颜色异常,请使用支持的设备播放!
##### MediaInfo ######
General
Unique ID                                : 216540811316868345876369307884406227631 (0xA2E83E46EC68BEE3C1817E8F4298C2AF)
Complete name                            : Submersion.of.Japan.1973.BluRay.2160p.DTS-HD.MA5.1.SDR.x265.10bit-DreamHD.mkv
Duration                                 : 2 h 23 min
Overall bit rate mode                    : Variable
Overall bit rate                         : 31.3 Mb/s
Video
ID                                       : 1
Format                                   : HEVC
Format/Info                              : High Efficiency Video Coding
Format profile                           : Main 10@L5@Main
Codec ID                                 : V_MPEGH/ISO/HEVC
Duration                                 : 2 h 23 min
Bit rate                                 : 27.3 Mb/s
Width                                    : 3 840 pixels
Height                                   : 1 604 pixels
Display aspect ratio                     : 2.40:1
Frame rate mode                          : Constant
Frame rate                               : 23.976 (24000/1001) FPS
Color space                              : YUV
Chroma subsampling                       : 4:2:0 (Type 2)
Bit depth                                : 10 bits
Bits/(Pixel*Frame)                       : 0.185
Stream size                              : 27.4 GiB (87%)
Writing library                          : x265 3.5f0c1022b6:[Linux][GCC 10.3.0][64 bit] 10bit
Encoding settings                        : cpuid=1111039 / frame-threads=5 / wpp / no-pmode / no-pme / no-psnr / no-ssim / log-level=4 / input-csp=1 / input-res=3840x1604 / interlace=0 / total-frames=206548 / level-idc=0 / high-tier=1 / uhd-bd=0 / ref=6 / no-allow-non-conformance / repeat-headers / annexb / no-aud / no-hrd / info / hash=0 / no-temporal-layers / no-open-gop / min-keyint=23 / keyint=250 / gop-lookahead=0 / bframes=14 / b-adapt=2 / b-pyramid / bframe-bias=0 / rc-lookahead=75 / lookahead-slices=8 / scenecut=40 / hist-scenecut=0 / radl=0 / no-splice / no-intra-refresh / ctu=32 / min-cu-size=8 / no-rect / no-amp / max-tu-size=32 / tu-inter-depth=1 / tu-intra-depth=1 / limit-tu=0 / rdoq-level=0 / dynamic-rd=0.00 / no-ssim-rd / signhide / no-tskip / nr-intra=0 / nr-inter=0 / no-constrained-intra / no-strong-intra-smoothing / max-merge=3 / limit-refs=1 / no-limit-modes / me=3 / subme=7 / merange=48 / temporal-mvp / no-frame-dup / hme / Level / merange / L0,L1,L2=24,36,48 / weightp / weightb / no-analyze-src-pics / deblock=0:0 / sao / no-sao-non-deblock / rd=4 / selective-sao=4 / early-skip / rskip / no-fast-intra / no-tskip-fast / no-cu-lossless / b-intra / no-splitrd-skip / rdpenalty=2 / psy-rd=2.00 / psy-rdoq=0.00 / no-rd-refine / no-lossless / cbqpoffs=0 / crqpoffs=0 / rc=crf / crf=17.0 / qcomp=0.60 / qpstep=4 / stats-write=0 / stats-read=0 / ipratio=1.40 / pbratio=1.30 / aq-mode=1 / aq-strength=1.00 / cutree / zone-count=0 / no-strict-cbr / qg-size=32 / no-rc-grain / qpmax=69 / qpmin=0 / no-const-vbv / sar=0 / overscan=0 / videoformat=5 / range=0 / colorprim=9 / transfer=14 / colormatrix=9 / chromaloc=1 / chromaloc-top=2 / chromaloc-bottom=2 / display-window=0 / cll=0,0 / min-luma=0 / max-luma=1023 / log2-max-poc-lsb=8 / vui-timing-info / vui-hrd-info / slices=1 / no-opt-qp-pps / no-opt-ref-list-length-pps / no-multi-pass-opt-rps / scenecut-bias=0.05 / hist-threshold=0.03 / no-opt-cu-delta-qp / aq-motion / hdr10 / no-hdr10-opt / no-dhdr10-opt / no-idr-recovery-sei / analysis-reuse-level=0 / analysis-save-reuse-level=0 / analysis-load-reuse-level=0 / scale-factor=0 / refine-intra=0 / refine-inter=0 / refine-mv=1 / refine-ctu-distortion=0 / no-limit-sao / ctu-info=0 / no-lowpass-dct / refine-analysis-type=0 / copy-pic=1 / max-ausize-factor=1.0 / no-dynamic-refine / no-single-sei / no-hevc-aq / no-svt / no-field / qp-adaptation-range=1.00 / scenecut-aware-qp=0conformance-window-offsets / right=0 / bottom=0 / decoder-max-rate=0 / no-vbv-live-multi-pass
Default                                  : Yes
Forced                                   : No
Color range                              : Limited
Color primaries                          : BT.2020
Transfer characteristics                 : BT.2020 (10-bit)
Matrix coefficients                      : BT.2020 non-constant
Audio
ID                                       : 2
Format                                   : DTS XLL
Format/Info                              : Digital Theater Systems
Commercial name                          : DTS-HD Master Audio
Codec ID                                 : A_DTS
Duration                                 : 2 h 23 min
Bit rate mode                            : Variable
Bit rate                                 : 3 912 kb/s
Channel(s)                               : 6 channels
Channel layout                           : C L R Ls Rs LFE
Sampling rate                            : 48.0 kHz
Frame rate                               : 93.750 FPS (512 SPF)
Bit depth                                : 24 bits
Compression mode                         : Lossless
Stream size                              : 3.92 GiB (13%)
Title                                    : JPN
Language                                 : Japanese
Default                                  : No
Forced                                   : No
Text #1
ID                                       : 3
Format                                   : PGS
Muxing mode                              : zlib
Codec ID                                 : S_HDMV/PGS
Codec ID/Info                            : Picture based subtitle format used on BDs/HD-DVDs
Duration                                 : 2 h 21 min
Bit rate                                 : 25.4 kb/s
Frame rate                               : 0.341 FPS
Count of elements                        : 2887
Stream size                              : 25.6 MiB (0%)
Title                                    : CHS
Language                                 : Chinese
Default                                  : Yes
Forced                                   : No
Text #2
ID                                       : 4
Format                                   : PGS
Muxing mode                              : zlib
Codec ID                                 : S_HDMV/PGS
Codec ID/Info                            : Picture based subtitle format used on BDs/HD-DVDs
Duration                                 : 2 h 21 min
Bit rate                                 : 25.8 kb/s
Frame rate                               : 0.341 FPS
Count of elements                        : 2887
Stream size                              : 26.0 MiB (0%)
Title                                    : CHT
Language                                 : Chinese
Default                                  : No
Forced                                   : No
Text #3
ID                                       : 5
Format                                   : PGS
Muxing mode                              : zlib
Codec ID                                 : S_HDMV/PGS
Codec ID/Info                            : Picture based subtitle format used on BDs/HD-DVDs
Duration                                 : 2 h 19 min
Bit rate                                 : 94.3 kb/s
Frame rate                               : 0.534 FPS
Count of elements                        : 4469
Stream size                              : 94.1 MiB (0%)
Title                                    : JPN
Language                                 : Japanese
Default                                  : No
Forced                                   : No
Text #4
ID                                       : 6
Format                                   : PGS
Muxing mode                              : zlib
Codec ID                                 : S_HDMV/PGS
Codec ID/Info                            : Picture based subtitle format used on BDs/HD-DVDs
Duration                                 : 2 h 21 min
Bit rate                                 : 35.9 kb/s
Frame rate                               : 0.312 FPS
Count of elements                        : 2642
Stream size                              : 36.3 MiB (0%)
Title                                    : ENG
Language                                 : English
Default                                  : No
Forced                                   : No
Menu
00:00:00.000                             : en:Chapter 01
00:04:11.418                             : en:Chapter 02
00:09:40.330                             : en:Chapter 03
00:13:35.356                             : en:Chapter 04
00:18:45.750                             : en:Chapter 05
00:22:10.913                             : en:Chapter 06
00:28:29.958                             : en:Chapter 07
00:35:25.623                             : en:Chapter 08
00:39:39.252                             : en:Chapter 09
00:44:03.599                             : en:Chapter 10
00:50:16.931                             : en:Chapter 11
00:54:59.379                             : en:Chapter 12
00:58:27.546                             : en:Chapter 13
01:03:25.760                             : en:Chapter 14
01:06:39.621                             : en:Chapter 15
01:09:30.666                             : en:Chapter 16
01:14:12.657                             : en:Chapter 17
01:18:28.787                             : en:Chapter 18
01:21:30.052                             : en:Chapter 19
01:26:41.321                             : en:Chapter 20
01:29:40.458                             : en:Chapter 21
01:32:55.361                             : en:Chapter 22
01:36:48.386                             : en:Chapter 23
01:39:32.842                             : en:Chapter 24
01:43:10.559                             : en:Chapter 25
01:46:37.600                             : en:Chapter 26
01:52:07.179                             : en:Chapter 27
01:54:37.454                             : en:Chapter 28
01:59:19.819                             : en:Chapter 29
02:05:00.159                             : en:Chapter 30
02:07:14.585                             : en:Chapter 31
02:08:33.623                             : en:Chapter 32
02:13:46.310                             : en:Chapter 33
02:15:51.560                             : en:Chapter 34
02:21:04.081                             : en:Chapter 35
02:23:33.772                             : en:Chapter 36
部分资源为软字幕,移动端推荐播放器:MxPlayer,nPlayer,infuse ,其他播放器请自行尝试。
部分资源为软字幕,电脑端推荐播放器:PotPlayer,完美解码,KMPLAYER,其他播放器请自行尝试。






~~~~~~~~~~~~~~~~~~~~~~~~~~~~~~~~~~~~~~~~~
[更 早][日本][剧情][WEB-4K]日本沉没[简繁英字幕].Submersion.of.Japan.1973.BluRay.2160p.DTS-HD.MA5.1.SDR.x265.10bit-Dr

【文件列表】:


Submersion.of.Japan.1973.BluRay.2160p.DTS-HD.MA5.1.SDR.x265.10bit-DreamHD.



【下载地址列表】:


游客
文件下载链接就在这里,在您回复评论成功后才能显示。
请勿回复无意义的灌水内容。


下拉页面到最底部回复或者【点击此处快捷回复】,回复后返回此处即可查看下载链接。
如您没注册本站会员,可以点击注册本站,注册后即可回复下载。



软字幕无法在截图上展现,HDR版本/杜比视界版本截图会出现颜色异常,请使用支持的设备播放!






[img][/img]






[img][/img]

(HDR版本/杜比视界版本,截图会出现颜色异常,请使用支持的设备播放)

小贴士:【影视自媒体解说文案请移步:夏至文案解说网 www.xiazhi.vip

上一篇:[2007][韩国][悬疑][WEB-1080P]我们的社区[中文字幕].Our.Town.2007.1080p.CATCHPLAY.WEB-DL.AAC2.0.H.264- 3.24GB
下一篇:[2023][其它][惊悚][WEB-1080P]皇家酒店[无字片源].The.Royal.Hotel.2023.1080p.Hulu.WEB-DL.DDP.5.1.H.264- 1.54GB
回复

使用道具 举报

您需要登录后才可以回帖 登录 | 立即注册

本版积分规则

Archiver|手机版|小众纪录片影视聚合

GMT+8, 2024-7-25 00:15 , Processed in 0.207222 second(s), 12 queries , Gzip On, Redis On.

Powered by 小众纪录片影视聚合 @2010-2023

Copyright © 2010-2024, https://www.xzjlp.com/.


免责说明:本站所有内容链接、图文介绍等均来自于互联网网友分享,本站仅支持web页面展示和文字介绍,绝不提供在线观看和存储服务,也不参与录制、上传、压片。若本站收录内容无意侵犯贵司版权,请发邮件到【a885185#163.com】联系本站,我们将在第一时间删除侵权内容。谢谢!

快速回复 返回顶部 返回列表