小众纪录片影视聚合

 找回密码
 立即注册
查看: 4|回复: 0

[蓝光电影] [2023][其它][惊悚][WEB-1080P]皇家酒店[无字片源].The.Royal.Hotel.2023.1080p.Hulu.WEB-DL.DDP.5.1.H.264- 1.54GB

[复制链接]

112万

主题

112万

帖子

112万

积分

超级版主

Rank: 8Rank: 8

积分
1128817
发表于 7 天前 | 显示全部楼层 |阅读模式


[2023][其它][惊悚][WEB-1080P]皇家酒店[无字片源].The.Royal.Hotel.2023.1080p.Hulu.WEB-DL.DDP.5.1.H.264- 1.54GB

完整标题:皇家酒店[无字片源].The.Royal.Hotel.2023.1080p.Hulu.WEB-DL.DDP.5.1.H.264-DreamHD 1.54GB
◎标  题 皇家酒店
◎片  名 The Royal Hotel
◎年  代 2023
◎产  地 澳大利亚 / 英国
◎类  别 惊悚
◎语  言 英语
◎上映日期 2023-09-01(特柳赖德电影节) / 2023-10-06(美国)
◎IMDb评分 5.9/10 (6736人评价)
◎IMDb链接 https://www.imdb.com/title/tt18363072/
◎豆瓣评分 4.8/10 (285人评价)
◎豆瓣链接 https://movie.douban.com/subject/35910493/
◎片  长 91分钟
◎导  演 基蒂·格林 Kitty Green
◎编  剧 基蒂·格林 Kitty Green
        Oscar Redding
◎演  员 杰西卡·亨维克 Jessica Henwick
       朱莉娅·加纳 Julia Garner
       雨果·维文 Hugo Weaving
       詹姆斯·弗兰切威勒 James Frecheville
       托比·华莱士 Toby Wallace
       丹尼尔·亨绍尔 Daniel Henshall
       Bree Desborough Bree Desborough
       Nick Slater Nick Slater
        Alex Malone
        Ursula Yovich
       亚当·摩根 Adam Morgan
        Nic Darrigo
        Chrissie Page
        Adam MacNeill
       巴尔巴拉·洛宁 Barbara Lowing
        Ben Kobs
        Todd Gray
        Stephen Schofield
◎简  介
    Liv (Jessica Henwick) and Hanna (Julia Garner), two Canadian women on vacation in Australia, run out of money. Desperate, they take a job bartending in a remote desert Outback hotel, only to realize they’ve stumbled into a sun-struck patch of Hell-on-Earth. Writer-director Kitty Green adapts, with co-screenwriter Oscar Redding, a true story that starts as a feminist parable and develops into a taut horror-thriller. Both Garner (reunited with Green after their stunning THE ASSISTANT) and Henwick are riveting, as is Hugo Weaving in an all-too-brief role. Green and coscreenwriter Oscar Redding don’t idealize their heroines in the politically correct way you might expect: Liv and Hanna are neither Girl Scouts nor victims. As the threat of misogynist violence rises, drink by drink, scene by scene, Green deepens the film’s core theme: ugly behavior and casual disregard for other humans is highly contagious.
点击图片可查看大图
软字幕无法在截图上展现,HDR版本/杜比视界版本截图会出现颜色异常,请使用支持的设备播放!
##### MediaInfo ######
General
Unique ID                                : 276974085402576919676502814394675518697 (0xD05F44BBBC2A2D5FEC14F1212B065CE9)
Complete name                            : The.Royal.Hotel.2023.1080p.Hulu.WEB-DL.DDP.5.1.H.264-DreamHD.mkv
Duration                                 : 1 h 30 min
Overall bit rate                         : 2 425 kb/s
Video
ID                                       : 1
Format                                   : AVC
Format/Info                              : Advanced Video Codec
Format profile                           : High@L4
Format settings                          : CABAC / 4 Ref Frames
Format settings, CABAC                   : Yes
Format settings, Reference frames        : 4 frames
Codec ID                                 : V_MPEG4/ISO/AVC
Duration                                 : 1 h 30 min
Bit rate                                 : 2 167 kb/s
Width                                    : 1 920 pixels
Height                                   : 1 080 pixels
Display aspect ratio                     : 16:9
Frame rate mode                          : Constant
Frame rate                               : 23.976 (24000/1001) FPS
Color space                              : YUV
Chroma subsampling                       : 4:2:0
Bit depth                                : 8 bits
Scan type                                : Progressive
Bits/(Pixel*Frame)                       : 0.044
Stream size                              : 1.37 GiB (89%)
Language                                 : English
Default                                  : Yes
Forced                                   : No
Audio
ID                                       : 2
Format                                   : E-AC-3
Format/Info                              : Enhanced AC-3
Commercial name                          : Dolby Digital Plus
Codec ID                                 : A_EAC3
Duration                                 : 1 h 30 min
Bit rate mode                            : Constant
Bit rate                                 : 256 kb/s
Channel(s)                               : 6 channels
Channel layout                           : L R C LFE Ls Rs
Sampling rate                            : 48.0 kHz
Frame rate                               : 31.250 FPS (1536 SPF)
Compression mode                         : Lossy
Stream size                              : 166 MiB (11%)
Language                                 : English
Service kind                             : Complete Main
Default                                  : Yes
Forced                                   : No
Text
ID                                       : 3
Format                                   : UTF-8
Codec ID                                 : S_TEXT/UTF8
Codec ID/Info                            : UTF-8 Plain Text
Duration                                 : 1 h 29 min
Bit rate                                 : 58 b/s
Frame rate                               : 0.289 FPS
Count of elements                        : 1561
Stream size                              : 38.6 KiB (0%)
Title                                    : SDH
Language                                 : English
Default                                  : No
Forced                                   : No
Menu
00:00:00.000                             : en:Chapter 01
00:12:43.090                             : en:Chapter 02
00:24:02.090                             : en:Chapter 03
00:35:44.020                             : en:Chapter 04
00:48:12.130                             : en:Chapter 05
01:00:13.220                             : en:Chapter 06
01:15:39.080                             : en:Chapter 07
01:26:47.010                             : en:Credits
部分资源为软字幕,移动端推荐播放器:MxPlayer,nPlayer,infuse ,其他播放器请自行尝试。
部分资源为软字幕,电脑端推荐播放器:PotPlayer,完美解码,KMPLAYER,其他播放器请自行尝试。






~~~~~~~~~~~~~~~~~~~~~~~~~~~~~~~~~~~~~~~~~
[2023][其它][惊悚][WEB-1080P]皇家酒店[无字片源].The.Royal.Hotel.2023.1080p.Hulu.WEB-DL.DDP.5.1.H.264- 1.54GB

【文件列表】:


The.Royal.Hotel.2023.1080p.Hulu.WEB-DL.DDP.5.1.H.264-DreamHD.



【下载地址列表】:


游客
文件下载链接就在这里,在您回复评论成功后才能显示。
请勿回复无意义的灌水内容。


下拉页面到最底部回复或者【点击此处快捷回复】,回复后返回此处即可查看下载链接。
如您没注册本站会员,可以点击注册本站,注册后即可回复下载。



软字幕无法在截图上展现,HDR版本/杜比视界版本截图会出现颜色异常,请使用支持的设备播放!






[img][/img]






[img][/img]

(HDR版本/杜比视界版本,截图会出现颜色异常,请使用支持的设备播放)

小贴士:【影视自媒体解说文案请移步:夏至文案解说网 www.xiazhi.vip

上一篇:[更 早][日本][剧情][WEB-4K]日本沉没[简繁英字幕].Submersion.of.Japan.1973.BluRay.2160p.DTS-HD.MA5.1.SDR.x265.10bit-Dr
下一篇:[2023][其它][惊悚][WEB-4K]皇家酒店[无字片源].The.Royal.Hotel.2023.2160p.Hulu.WEB-DL.DDP.5.1.H.265- 7.36GB
回复

使用道具 举报

您需要登录后才可以回帖 登录 | 立即注册

本版积分规则

Archiver|手机版|小众纪录片影视聚合

GMT+8, 2024-7-16 23:23 , Processed in 0.097668 second(s), 12 queries , Gzip On, Redis On.

Powered by 小众纪录片影视聚合 @2010-2023

Copyright © 2010-2024, https://www.xzjlp.com/.


免责说明:本站所有内容链接、图文介绍等均来自于互联网网友分享,本站仅支持web页面展示和文字介绍,绝不提供在线观看和存储服务,也不参与录制、上传、压片。若本站收录内容无意侵犯贵司版权,请发邮件到【a885185#163.com】联系本站,我们将在第一时间删除侵权内容。谢谢!

快速回复 返回顶部 返回列表