小众纪录片影视聚合

 找回密码
 立即注册
查看: 4|回复: 0

[蓝光电影] [更 早][香港][惊悚][BD-1080P]龙在边缘[国语音轨].Century.of.the.Dragon.1999.BluRay.REMUX.1080p.AVC.DTS-HD.MA5.1.2Audio

[复制链接]

113万

主题

113万

帖子

113万

积分

超级版主

Rank: 8Rank: 8

积分
1134746
发表于 2024-7-9 21:37:20 | 显示全部楼层 |阅读模式


[更 早][香港][惊悚][BD-1080P]龙在边缘[国语音轨].Century.of.the.Dragon.1999.BluRay.REMUX.1080p.AVC.DTS-HD.MA5.1.2Audio

完整标题:龙在边缘[国语音轨].Century.of.the.Dragon.1999.BluRay.REMUX.1080p.AVC.DTS-HD.MA5.1.2Audio-DreamHD 28.63GB
◎标  题 龙在边缘
◎译  名 Century of the Dragon
◎片  名 龍在邊緣
◎年  代 1999
◎产  地 中国香港
◎类  别 惊悚
◎语  言 粤语
◎上映日期 1999-10-15(中国香港)
◎IMDb评分 6.4/10 (460人评价)
◎IMDb链接 https://www.imdb.com/title/tt0219887/
◎豆瓣评分 7.3/10 (23530人评价)
◎豆瓣链接 https://movie.douban.com/subject/1303983/
◎片  长 110分钟
◎导  演 霍耀良 Clarence Fok Yiu-leung
◎编  剧 王晶 Jing Wong
◎演  员 刘德华 Andy Lau
       古天乐 Louis Koo
       谭耀文 Patrick Tam
       关秀媚 Suki Kwan
       黄秋生 Anthony Wong Chau-Sang
       刘锡贤 Shek Yin Lau
       鲍起静 Hee Ching Paw
       尹天照 Tin-chiu Wan
       万绮雯 Yee-Man Man
       朱婉仪 Chu yuen yee
       李家鼎 Steve Lee
       吴志雄 Chi Hung Ng
       龙方 Fong Lung
       李道谕 Do-Yu Lee
       李兆基 Siu-Kei Lee
       宗扬 Yeung Chung
◎简  介
    志成(古天乐 饰)还在警校的时候便被派往潜入黑社会的洪兴社做卧底,智勇的志成后来成为了帮中老大飞龙(刘德华 饰)的赏识。多年来上司都要求志成交出飞龙的犯罪证据,但志成发现飞龙不过是一名商人而已,更发现飞龙有改邪归正的意图。                                    飞龙有一名好兄弟阿豹(黄秋生 饰)因为被出卖, 被警方打至重伤瘫痪了,儿子文俊(谭耀文 饰)决心要为父亲报仇,更要夺得江湖上老大的位置,于是他有了陷害飞龙的阴谋。果然,飞龙这时不但被警方通缉,儿子的生命更受到了文俊的威胁。志成及时赶到,救走了飞龙,但飞龙的妻子还是死去了。悲伤之极的飞龙要找文俊报仇,志成不想看到飞龙因杀人被捕,于是表明了自己的身份……##### MediaInfo ######
General
Unique ID                                : 332110893126575653959404054553138113366 (0xF9DA3B3C91C5F53B02FEE316AA692B56)
Complete name                            : Century.of.the.Dragon.1999.BluRay.REMUX.1080p.AVC.DTS-HD.MA5.1.2Audio-DreamHD.mkv
Duration                                 : 1 h 47 min
Overall bit rate mode                    : Variable
Overall bit rate                         : 38.1 Mb/s
Video
ID                                       : 1
ID in the original source medium         : 4113 (0x1011)
Format                                   : AVC
Format/Info                              : Advanced Video Codec
Format profile                           : [email protected]
Format settings                          : CABAC / 4 Ref Frames
Format settings, CABAC                   : Yes
Format settings, Reference frames        : 4 frames
Format settings, GOP                     : M=3, N=24
Codec ID                                 : V_MPEG4/ISO/AVC
Duration                                 : 1 h 47 min
Bit rate mode                            : Variable
Bit rate                                 : 33.0 Mb/s
Maximum bit rate                         : 40.0 Mb/s
Width                                    : 1 920 pixels
Height                                   : 1 080 pixels
Display aspect ratio                     : 16:9
Frame rate mode                          : Constant
Frame rate                               : 24.000 FPS
Standard                                 : NTSC
Color space                              : YUV
Chroma subsampling                       : 4:2:0
Bit depth                                : 8 bits
Scan type                                : Progressive
Bits/(Pixel*Frame)                       : 0.663
Stream size                              : 24.8 GiB (87%)
Default                                  : Yes
Forced                                   : No
Color range                              : Limited
Color primaries                          : BT.709
Transfer characteristics                 : BT.709
Matrix coefficients                      : BT.709
Original source medium                   : Blu-ray
Audio #1
ID                                       : 2
ID in the original source medium         : 4352 (0x1100)
Format                                   : DTS XLL
Format/Info                              : Digital Theater Systems
Commercial name                          : DTS-HD Master Audio
Codec ID                                 : A_DTS
Duration                                 : 1 h 47 min
Bit rate mode                            : Variable
Bit rate                                 : 3 355 kb/s
Channel(s)                               : 6 channels
Channel layout                           : C L R Ls Rs LFE
Sampling rate                            : 48.0 kHz
Frame rate                               : 93.750 FPS (512 SPF)
Bit depth                                : 24 bits
Compression mode                         : Lossless
Stream size                              : 2.52 GiB (9%)
Language                                 : Chinese
Default                                  : Yes
Forced                                   : No
Original source medium                   : Blu-ray
Audio #2
ID                                       : 3
ID in the original source medium         : 4353 (0x1101)
Format                                   : DTS XLL
Format/Info                              : Digital Theater Systems
Commercial name                          : DTS-HD Master Audio
Codec ID                                 : A_DTS
Duration                                 : 1 h 47 min
Bit rate mode                            : Variable
Bit rate                                 : 1 720 kb/s
Channel(s)                               : 6 channels
Channel layout                           : C L R Ls Rs LFE
Sampling rate                            : 48.0 kHz
Frame rate                               : 93.750 FPS (512 SPF)
Bit depth                                : 16 bits
Compression mode                         : Lossless
Stream size                              : 1.29 GiB (5%)
Language                                 : Chinese
Default                                  : Yes
Forced                                   : No
Original source medium                   : Blu-ray
Menu
00:00:00.000                             : en:Chapter 01
00:08:24.416                             : en:Chapter 02
00:16:20.416                             : en:Chapter 03
00:24:54.416                             : en:Chapter 04
00:33:08.000                             : en:Chapter 05
00:42:29.000                             : en:Chapter 06
00:56:05.416                             : en:Chapter 07
01:06:58.416                             : en:Chapter 08
01:15:18.833                             : en:Chapter 09
01:25:42.833                             : en:Chapter 10
01:34:45.416                             : en:Chapter 11
01:41:02.000                             : en:Chapter 12
部分资源为软字幕,移动端推荐播放器:MxPlayer,nPlayer,infuse ,其他播放器请自行尝试。
部分资源为软字幕,电脑端推荐播放器:PotPlayer,完美解码,KMPLAYER,其他播放器请自行尝试。
下载端推荐纯BT下载软件:qBittorrent,Bitcomet,uTorrent ,其他下载软件请自行尝试。不支持吸血迅雷。






~~~~~~~~~~~~~~~~~~~~~~~~~~~~~~~~~~~~~~~~~
[更 早][香港][惊悚][BD-1080P]龙在边缘[国语音轨].Century.of.the.Dragon.1999.BluRay.REMUX.1080p.AVC.DTS-HD.MA5.1.2Audio

【文件列表】:


Century.of.the.Dragon.1999.BluRay.REMUX.1080p.AVC.DTS-HD.MA5.1.2Audio-Dream...



【下载地址列表】:


游客
文件下载链接就在这里,在您回复评论成功后才能显示。
请勿回复无意义的灌水内容。


下拉页面到最底部回复或者【点击此处快捷回复】,回复后返回此处即可查看下载链接。
如您没注册本站会员,可以点击注册本站,注册后即可回复下载。



软字幕无法在截图上展现,HDR版本/杜比视界版本截图会出现颜色异常,请使用支持的设备播放!






[img][/img]






[img][/img]

(HDR版本/杜比视界版本,截图会出现颜色异常,请使用支持的设备播放)

小贴士:【影视自媒体解说文案请移步:夏至文案解说网 www.xiazhi.vip

上一篇:[2022][泰国][剧情][BD-1080P]洞穴拯救[中文字幕].Cave.Rescue.2022.BluRay.REMUX.1080p.AVC.DTS-HD.MA5.1- 18.17GB
下一篇:[更 早][欧美][惊悚][BD-4K]鬼娃回魂2[国英多音轨/中英字幕].Child's.Play.2.1990.UHD.BluRay.REMUX.2160p.HEVC.Atmos.TrueHD7.
回复

使用道具 举报

您需要登录后才可以回帖 登录 | 立即注册

本版积分规则

Archiver|手机版|小众纪录片影视聚合

GMT+8, 2024-7-22 06:55 , Processed in 0.097843 second(s), 13 queries , Gzip On, Redis On.

Powered by 小众纪录片影视聚合 @2010-2023

Copyright © 2010-2024, https://www.xzjlp.com/.


免责说明:本站所有内容链接、图文介绍等均来自于互联网网友分享,本站仅支持web页面展示和文字介绍,绝不提供在线观看和存储服务,也不参与录制、上传、压片。若本站收录内容无意侵犯贵司版权,请发邮件到【a885185#163.com】联系本站,我们将在第一时间删除侵权内容。谢谢!

快速回复 返回顶部 返回列表