小众纪录片影视聚合

 找回密码
 立即注册
查看: 5|回复: 0

[蓝光电影] [更 早][欧美][惊悚][BD-4K]鬼娃回魂2[国英多音轨/中英字幕].Child's.Play.2.1990.UHD.BluRay.REMUX.2160p.HEVC.Atmos.TrueHD7.

[复制链接]

112万

主题

112万

帖子

112万

积分

超级版主

Rank: 8Rank: 8

积分
1128817
发表于 7 天前 | 显示全部楼层 |阅读模式


[更 早][欧美][惊悚][BD-4K]鬼娃回魂2[国英多音轨/中英字幕].Child's.Play.2.1990.UHD.BluRay.REMUX.2160p.HEVC.Atmos.TrueHD7.

完整标题:鬼娃回魂2[国英多音轨/中英字幕].Child's.Play.2.1990.UHD.BluRay.REMUX.2160p.HEVC.Atmos.TrueHD7.1.2Audio-DreamHD 50.66GB
◎标  题 鬼娃回魂2
◎译  名 灵异入侵2 / 异灵七杀
◎片  名 Child's Play 2
◎年  代 1990
◎产  地 美国
◎类  别 惊悚 / 恐怖
◎语  言 英语
◎上映日期 1990-11-09
◎IMDb评分 5.9/10 (53826人评价)
◎IMDb链接 https://www.imdb.com/title/tt0099253/
◎豆瓣评分 6.7/10 (8408人评价)
◎豆瓣链接 https://movie.douban.com/subject/1293798/
◎片  长 84 分钟
◎导  演 约翰·拉菲亚 John Lafia
◎编  剧 唐·曼西尼 Don Mancini
◎演  员 艾力克斯·文森特 Alex Vincent
       珍妮·艾加特 Jenny Agutter
       格里特·格雷厄姆 Gerrit Graham
       克里斯汀·爱丽斯 Christine Elise
       布拉德·道里夫 Brad Dourif
       格蕾丝·扎布里斯基 Grace Zabriskie
       彼得哈斯克尔 Peter Haskell
       贝丝·格兰特 Beth Grant
       格雷格·格曼 Greg Germann
       雷蒙德·辛格 Raymond Singer
       Charles Meshack Charles Meshack
       马特·罗 Matt Roe
       Herbie Braha Herbie Braha
       Edan Gross Edan Gross
◎简  介
    公仔杀人事件经媒体报道后,引发制作“楚其”的玩具公司对市场前景的担忧,玩具公司将楚其的残骸收回并加以修复,试图向股东证明杀人玩具不过是谣言一场,然而在修复完成时,楚其随即复活,它引发混乱,并最终逃脱。另一方面,安迪(艾力克斯·文森特 Alex Vincent 饰)和母亲分别接受心理治疗,一对好心夫妇暂时照顾安迪。根据灵魂转移的符咒要求,楚其如果要避免与公仔一同人格化的命运,就必须寄宿到第一个知晓它秘密的人——也就是安迪身上,楚其剩下的时间已经不多,它再度找到安迪准备侵占其身体。安迪为了躲避找上门的楚其,用尽办法得到的却是周围大人的不理解与训斥,和安迪一起被收养的少女凯莉也卷入了这场公仔夺取安迪身体的非常事件……##### MediaInfo ######
General
Unique ID                                : 268573871085410040068537182015080369780 (0xCA0D723102A75D5B2BDFADC436280E74)
Complete name                            : Child's.Play.2.1990.UHD.BluRay.REMUX.2160p.HEVC.Atmos.TrueHD7.1.2Audio-DreamHD.mkv
Duration                                 : 1 h 24 min
Overall bit rate mode                    : Variable
Overall bit rate                         : 86.2 Mb/s
Video
ID                                       : 1
ID in the original source medium         : 4113 (0x1011)
Format                                   : HEVC
Format/Info                              : High Efficiency Video Coding
Format profile                           : Main [email protected]@High
HDR format                               : SMPTE ST 2086, HDR10 compatible
Codec ID                                 : V_MPEGH/ISO/HEVC
Duration                                 : 1 h 24 min
Bit rate                                 : 76.5 Mb/s
Width                                    : 3 840 pixels
Height                                   : 2 160 pixels
Display aspect ratio                     : 16:9
Frame rate mode                          : Constant
Frame rate                               : 24.000 FPS
Color space                              : YUV
Chroma subsampling                       : 4:2:0 (Type 2)
Bit depth                                : 10 bits
Bits/(Pixel*Frame)                       : 0.384
Stream size                              : 45.0 GiB (89%)
Default                                  : Yes
Forced                                   : No
Color range                              : Limited
Color primaries                          : BT.2020
Transfer characteristics                 : PQ
Matrix coefficients                      : BT.2020 non-constant
Mastering display color primaries        : Display P3
Mastering display luminance              : min: 0.0001 cd/m2, max: 1000 cd/m2
Maximum Content Light Level              : 1127 cd/m2
Maximum Frame-Average Light Level        : 316 cd/m2
Original source medium                   : Blu-ray
Audio #1
ID                                       : 2
ID in the original source medium         : 4352 (0x1100)
Format                                   : MLP FBA 16-ch
Format/Info                              : Meridian Lossless Packing FBA with 16-channel presentation
Commercial name                          : Dolby TrueHD with Dolby Atmos
Codec ID                                 : A_TRUEHD
Duration                                 : 1 h 24 min
Bit rate mode                            : Variable
Bit rate                                 : 4 300 kb/s
Maximum bit rate                         : 6 873 kb/s
Channel(s)                               : 8 channels
Channel layout                           : L R C LFE Ls Rs Lb Rb
Sampling rate                            : 48.0 kHz
Frame rate                               : 1 200.000 FPS (40 SPF)
Compression mode                         : Lossless
Stream size                              : 2.53 GiB (5%)
Language                                 : English
Default                                  : Yes
Forced                                   : No
Original source medium                   : Blu-ray
Number of dynamic objects                : 11
Bed channel count                        : 1 channel
Bed channel configuration                : LFE
Audio #2
ID                                       : 3
ID in the original source medium         : 4355 (0x1103)
Format                                   : DTS XLL
Format/Info                              : Digital Theater Systems
Commercial name                          : DTS-HD Master Audio
Codec ID                                 : A_DTS
Duration                                 : 1 h 24 min
Bit rate mode                            : Variable
Bit rate                                 : 5 174 kb/s
Channel(s)                               : 8 channels
Channel layout                           : C L R LFE Lb Rb Lss Rss
Sampling rate                            : 48.0 kHz
Frame rate                               : 93.750 FPS (512 SPF)
Bit depth                                : 24 bits
Compression mode                         : Lossless
Stream size                              : 3.04 GiB (6%)
Language                                 : Chinese
Default                                  : Yes
Forced                                   : No
Original source medium                   : Blu-ray
Text #1
ID                                       : 4
ID in the original source medium         : 4768 (0x12A0)
Format                                   : PGS
Muxing mode                              : zlib
Codec ID                                 : S_HDMV/PGS
Codec ID/Info                            : Picture based subtitle format used on BDs/HD-DVDs
Duration                                 : 1 h 13 min
Bit rate                                 : 28.1 kb/s
Frame rate                               : 0.402 FPS
Count of elements                        : 1784
Stream size                              : 14.8 MiB (0%)
Language                                 : English
Default                                  : Yes
Forced                                   : No
Original source medium                   : Blu-ray
Text #2
ID                                       : 5
ID in the original source medium         : 4769 (0x12A1)
Format                                   : PGS
Muxing mode                              : zlib
Codec ID                                 : S_HDMV/PGS
Codec ID/Info                            : Picture based subtitle format used on BDs/HD-DVDs
Duration                                 : 1 h 20 min
Bit rate                                 : 68.4 kb/s
Frame rate                               : 0.579 FPS
Count of elements                        : 2783
Stream size                              : 39.2 MiB (0%)
Language                                 : Chinese
Default                                  : Yes
Forced                                   : No
Original source medium                   : Blu-ray
Text #3
ID                                       : 6
ID in the original source medium         : 4770 (0x12A2)
Format                                   : PGS
Muxing mode                              : zlib
Codec ID                                 : S_HDMV/PGS
Codec ID/Info                            : Picture based subtitle format used on BDs/HD-DVDs
Duration                                 : 1 h 20 min
Bit rate                                 : 69.7 kb/s
Frame rate                               : 0.579 FPS
Count of elements                        : 2783
Stream size                              : 40.0 MiB (0%)
Language                                 : Chinese
Default                                  : Yes
Forced                                   : No
Original source medium                   : Blu-ray
Text #4
ID                                       : 7
ID in the original source medium         : 4771 (0x12A3)
Format                                   : PGS
Muxing mode                              : zlib
Codec ID                                 : S_HDMV/PGS
Codec ID/Info                            : Picture based subtitle format used on BDs/HD-DVDs
Duration                                 : 1 h 20 min
Bit rate                                 : 79.2 kb/s
Frame rate                               : 0.514 FPS
Count of elements                        : 2473
Stream size                              : 45.4 MiB (0%)
Language                                 : Chinese
Default                                  : Yes
Forced                                   : No
Original source medium                   : Blu-ray
Text #5
ID                                       : 8
ID in the original source medium         : 4772 (0x12A4)
Format                                   : PGS
Muxing mode                              : zlib
Codec ID                                 : S_HDMV/PGS
Codec ID/Info                            : Picture based subtitle format used on BDs/HD-DVDs
Duration                                 : 1 h 20 min
Bit rate                                 : 80.5 kb/s
Frame rate                               : 0.514 FPS
Count of elements                        : 2473
Stream size                              : 46.2 MiB (0%)
Language                                 : Chinese
Default                                  : Yes
Forced                                   : No
Original source medium                   : Blu-ray
Menu
00:00:00.000                             : en:Chapter 01
00:09:34.083                             : en:Chapter 02
00:17:35.791                             : en:Chapter 03
00:25:18.083                             : en:Chapter 04
00:32:54.916                             : en:Chapter 05
00:39:56.875                             : en:Chapter 06
00:46:38.333                             : en:Chapter 07
00:52:59.750                             : en:Chapter 08
00:59:35.416                             : en:Chapter 09
01:05:21.166                             : en:Chapter 10
01:11:05.208                             : en:Chapter 11
01:16:40.625                             : en:Chapter 12
部分资源为软字幕,移动端推荐播放器:MxPlayer,nPlayer,infuse ,其他播放器请自行尝试。
部分资源为软字幕,电脑端推荐播放器:PotPlayer,完美解码,KMPLAYER,其他播放器请自行尝试。
下载端推荐纯BT下载软件:qBittorrent,Bitcomet,uTorrent ,其他下载软件请自行尝试。不支持吸血迅雷。






~~~~~~~~~~~~~~~~~~~~~~~~~~~~~~~~~~~~~~~~~
[更 早][欧美][惊悚][BD-4K]鬼娃回魂2[国英多音轨/中英字幕].Child's.Play.2.1990.UHD.BluRay.REMUX.2160p.HEVC.Atmos.TrueHD7.

【文件列表】:


Child's.Play.2.1990.UHD.BluRay.REMUX.2160p.HEVC.Atmos.TrueHD7.1.2Audio-Drea...



【下载地址列表】:


游客
文件下载链接就在这里,在您回复评论成功后才能显示。
请勿回复无意义的灌水内容。


下拉页面到最底部回复或者【点击此处快捷回复】,回复后返回此处即可查看下载链接。
如您没注册本站会员,可以点击注册本站,注册后即可回复下载。



软字幕无法在截图上展现,HDR版本/杜比视界版本截图会出现颜色异常,请使用支持的设备播放!






[img][/img]






[img][/img]

(HDR版本/杜比视界版本,截图会出现颜色异常,请使用支持的设备播放)

小贴士:【影视自媒体解说文案请移步:夏至文案解说网 www.xiazhi.vip

上一篇:[更 早][香港][惊悚][BD-1080P]龙在边缘[国语音轨].Century.of.the.Dragon.1999.BluRay.REMUX.1080p.AVC.DTS-HD.MA5.1.2Audio
下一篇:[更 早][其它][惊悚][BD-4K]鬼娃回魂3[中文字幕].Child's.Play.3.1991.UHD.BluRay.REMUX.2160p.HEVC.Atmos.TrueHD7.1-Drea
回复

使用道具 举报

您需要登录后才可以回帖 登录 | 立即注册

本版积分规则

Archiver|手机版|小众纪录片影视聚合

GMT+8, 2024-7-16 22:52 , Processed in 4.908610 second(s), 12 queries , Gzip On, Redis On.

Powered by 小众纪录片影视聚合 @2010-2023

Copyright © 2010-2024, https://www.xzjlp.com/.


免责说明:本站所有内容链接、图文介绍等均来自于互联网网友分享,本站仅支持web页面展示和文字介绍,绝不提供在线观看和存储服务,也不参与录制、上传、压片。若本站收录内容无意侵犯贵司版权,请发邮件到【a885185#163.com】联系本站,我们将在第一时间删除侵权内容。谢谢!

快速回复 返回顶部 返回列表