小众纪录片影视聚合

 找回密码
 立即注册
查看: 4|回复: 0

[蓝光电影] [更 早][欧美][惊悚][BD-4K]鬼娃回魂[国英多音轨/中英字幕].Child's.Play.1988.UHD.BluRay.REMUX.2160p.HEVC.Atmos.TrueHD7.1.2

[复制链接]

116万

主题

116万

帖子

116万

积分

超级版主

Rank: 8Rank: 8

积分
1167997
发表于 2024-7-9 21:37:31 | 显示全部楼层 |阅读模式


[更 早][欧美][惊悚][BD-4K]鬼娃回魂[国英多音轨/中英字幕].Child's.Play.1988.UHD.BluRay.REMUX.2160p.HEVC.Atmos.TrueHD7.1.2

完整标题:鬼娃回魂[国英多音轨/中英字幕].Child's.Play.1988.UHD.BluRay.REMUX.2160p.HEVC.Atmos.TrueHD7.1.2Audio-DreamHD 51.75GB
◎标  题 鬼娃回魂
◎译  名 鬼娃回魂1 / 灵异入侵 / 恶灵入侵少年兵团
◎片  名 Child's Play
◎年  代 1988
◎产  地 美国
◎类  别 惊悚 / 恐怖
◎语  言 英语
◎上映日期 1988-11-09(美国)
◎IMDb评分 6.6/10 (107026人评价)
◎IMDb链接 https://www.imdb.com/title/tt0094862/
◎豆瓣评分 7.0/10 (17518人评价)
◎豆瓣链接 https://movie.douban.com/subject/1300077/
◎片  长 87分钟
◎导  演 汤姆·霍兰德 Tom Holland
◎编  剧 唐·曼西尼 Don Mancini
       约翰·拉菲亚 John Lafia
       汤姆·霍兰德 Tom Holland
◎演  员 凯瑟琳·海克丝 Catherine Hicks
       克里斯·萨兰登 Chris Sarandon
       艾力克斯·文森特 Alex Vincent
       布拉德·道里夫 Brad Dourif
       黛娜·马诺夫 Dinah Manoff
       汤米·斯威德洛 Tommy Swerdlow
       杰克·科尔文 Jack Colvin
       尼尔·吉恩托利 Neil Giuntoli
       Ted Liss Ted Liss
       艾迪·盖尔 Ed Gale
       Tommy Gerard Tommy Gerard
       Edan Gross Edan Gross
       约翰·福兰克林 John Franklin
       迈克尔·帕特里克·卡特 Michael Patrick Carter
◎简  介
    美国芝加哥的午夜,杀人犯雷在警探迈克(克里斯·萨兰登 Chris Sarandon )的追捕中身负枪伤,仓皇逃入了一家玩具店,走投无路下,雷念起咒语,将灵魂转移到了一个玩具公仔身上。在商场做售货员的单身母亲凯伦(凯瑟琳·海克丝 Catherine Hicks 饰)为儿子安迪(艾力克斯·文森特 Alex Vincent 饰)的生日礼物发愁,当她看到流浪汉出售的便宜公仔时,兴冲冲的买下了。而这个安迪渴望的礼物,实际正是那只收纳了杀人犯雷的灵魂的公仔。自称“楚其”的公仔在无人时便开口和安迪对话,并杀死了安迪的阿姨和自己昔日的同伙,安迪目睹公仔杀人的线索,却苦于无人相信。凯伦不久终于发现了公仔的秘密,但似乎为时已晚……##### MediaInfo ######
General
Unique ID                                : 232512232633945144356857945174429747627 (0xAEEC3A24F81AD0DD43FD404C28B549AB)
Complete name                            : Child's.Play.1988.UHD.BluRay.REMUX.2160p.HEVC.Atmos.TrueHD7.1.2Audio-DreamHD.mkv
Duration                                 : 1 h 27 min
Overall bit rate mode                    : Variable
Overall bit rate                         : 85.0 Mb/s
Video
ID                                       : 1
ID in the original source medium         : 4113 (0x1011)
Format                                   : HEVC
Format/Info                              : High Efficiency Video Coding
Format profile                           : Main [email protected]@High
HDR format                               : SMPTE ST 2086, HDR10 compatible
Codec ID                                 : V_MPEGH/ISO/HEVC
Duration                                 : 1 h 27 min
Bit rate                                 : 76.5 Mb/s
Width                                    : 3 840 pixels
Height                                   : 2 160 pixels
Display aspect ratio                     : 16:9
Frame rate mode                          : Constant
Frame rate                               : 24.000 FPS
Color space                              : YUV
Chroma subsampling                       : 4:2:0 (Type 2)
Bit depth                                : 10 bits
Bits/(Pixel*Frame)                       : 0.384
Stream size                              : 46.6 GiB (90%)
Default                                  : Yes
Forced                                   : No
Color range                              : Limited
Color primaries                          : BT.2020
Transfer characteristics                 : PQ
Matrix coefficients                      : BT.2020 non-constant
Mastering display color primaries        : Display P3
Mastering display luminance              : min: 0.0001 cd/m2, max: 1000 cd/m2
Maximum Content Light Level              : 1225 cd/m2
Maximum Frame-Average Light Level        : 671 cd/m2
Original source medium                   : Blu-ray
Audio #1
ID                                       : 2
ID in the original source medium         : 4352 (0x1100)
Format                                   : MLP FBA 16-ch
Format/Info                              : Meridian Lossless Packing FBA with 16-channel presentation
Commercial name                          : Dolby TrueHD with Dolby Atmos
Codec ID                                 : A_TRUEHD
Duration                                 : 1 h 27 min
Bit rate mode                            : Variable
Bit rate                                 : 3 421 kb/s
Maximum bit rate                         : 6 363 kb/s
Channel(s)                               : 8 channels
Channel layout                           : L R C LFE Ls Rs Lb Rb
Sampling rate                            : 48.0 kHz
Frame rate                               : 1 200.000 FPS (40 SPF)
Compression mode                         : Lossless
Stream size                              : 2.08 GiB (4%)
Language                                 : English
Default                                  : Yes
Forced                                   : No
Original source medium                   : Blu-ray
Number of dynamic objects                : 11
Bed channel count                        : 1 channel
Bed channel configuration                : LFE
Audio #2
ID                                       : 3
ID in the original source medium         : 4355 (0x1103)
Format                                   : DTS XLL
Format/Info                              : Digital Theater Systems
Commercial name                          : DTS-HD Master Audio
Codec ID                                 : A_DTS
Duration                                 : 1 h 27 min
Bit rate mode                            : Variable
Bit rate                                 : 4 884 kb/s
Channel(s)                               : 8 channels
Channel layout                           : C L R LFE Lb Rb Lss Rss
Sampling rate                            : 48.0 kHz
Frame rate                               : 93.750 FPS (512 SPF)
Bit depth                                : 24 bits
Compression mode                         : Lossless
Stream size                              : 2.97 GiB (6%)
Language                                 : Chinese
Default                                  : Yes
Forced                                   : No
Original source medium                   : Blu-ray
Text #1
ID                                       : 4
ID in the original source medium         : 4768 (0x12A0)
Format                                   : PGS
Muxing mode                              : zlib
Codec ID                                 : S_HDMV/PGS
Codec ID/Info                            : Picture based subtitle format used on BDs/HD-DVDs
Duration                                 : 1 h 17 min
Bit rate                                 : 31.0 kb/s
Frame rate                               : 0.404 FPS
Count of elements                        : 1867
Stream size                              : 17.1 MiB (0%)
Language                                 : English
Default                                  : Yes
Forced                                   : No
Original source medium                   : Blu-ray
Text #2
ID                                       : 5
ID in the original source medium         : 4769 (0x12A1)
Format                                   : PGS
Muxing mode                              : zlib
Codec ID                                 : S_HDMV/PGS
Codec ID/Info                            : Picture based subtitle format used on BDs/HD-DVDs
Duration                                 : 1 h 23 min
Bit rate                                 : 51.9 kb/s
Frame rate                               : 0.618 FPS
Count of elements                        : 3095
Stream size                              : 30.9 MiB (0%)
Language                                 : Chinese
Default                                  : Yes
Forced                                   : No
Original source medium                   : Blu-ray
Text #3
ID                                       : 6
ID in the original source medium         : 4770 (0x12A2)
Format                                   : PGS
Muxing mode                              : zlib
Codec ID                                 : S_HDMV/PGS
Codec ID/Info                            : Picture based subtitle format used on BDs/HD-DVDs
Duration                                 : 1 h 23 min
Bit rate                                 : 52.6 kb/s
Frame rate                               : 0.618 FPS
Count of elements                        : 3095
Stream size                              : 31.4 MiB (0%)
Language                                 : Chinese
Default                                  : Yes
Forced                                   : No
Original source medium                   : Blu-ray
Text #4
ID                                       : 7
ID in the original source medium         : 4771 (0x12A3)
Format                                   : PGS
Muxing mode                              : zlib
Codec ID                                 : S_HDMV/PGS
Codec ID/Info                            : Picture based subtitle format used on BDs/HD-DVDs
Duration                                 : 1 h 23 min
Bit rate                                 : 62.9 kb/s
Frame rate                               : 0.534 FPS
Count of elements                        : 2670
Stream size                              : 37.5 MiB (0%)
Language                                 : Chinese
Default                                  : Yes
Forced                                   : No
Original source medium                   : Blu-ray
Text #5
ID                                       : 8
ID in the original source medium         : 4772 (0x12A4)
Format                                   : PGS
Muxing mode                              : zlib
Codec ID                                 : S_HDMV/PGS
Codec ID/Info                            : Picture based subtitle format used on BDs/HD-DVDs
Duration                                 : 1 h 23 min
Bit rate                                 : 63.6 kb/s
Frame rate                               : 0.534 FPS
Count of elements                        : 2670
Stream size                              : 37.9 MiB (0%)
Language                                 : Chinese
Default                                  : Yes
Forced                                   : No
Original source medium                   : Blu-ray
Menu
00:00:00.000                             : en:Chapter 01
00:06:20.916                             : en:Chapter 02
00:13:22.083                             : en:Chapter 03
00:23:44.708                             : en:Chapter 04
00:29:35.916                             : en:Chapter 05
00:39:03.083                             : en:Chapter 06
00:46:45.666                             : en:Chapter 07
00:53:23.958                             : en:Chapter 08
01:03:25.041                             : en:Chapter 09
01:09:07.791                             : en:Chapter 10
01:14:14.083                             : en:Chapter 11
01:20:24.666                             : en:Chapter 12
部分资源为软字幕,移动端推荐播放器:MxPlayer,nPlayer,infuse ,其他播放器请自行尝试。
部分资源为软字幕,电脑端推荐播放器:PotPlayer,完美解码,KMPLAYER,其他播放器请自行尝试。
下载端推荐纯BT下载软件:qBittorrent,Bitcomet,uTorrent ,其他下载软件请自行尝试。不支持吸血迅雷。






~~~~~~~~~~~~~~~~~~~~~~~~~~~~~~~~~~~~~~~~~
[更 早][欧美][惊悚][BD-4K]鬼娃回魂[国英多音轨/中英字幕].Child's.Play.1988.UHD.BluRay.REMUX.2160p.HEVC.Atmos.TrueHD7.1.2

【文件列表】:


Child's.Play.1988.UHD.BluRay.REMUX.2160p.HEVC.Atmos.TrueHD7.1.2Audio-DreamH...



【下载地址列表】:


游客
文件下载链接就在这里,在您回复评论成功后才能显示。
请勿回复无意义的灌水内容。


下拉页面到最底部回复或者【点击此处快捷回复】,回复后返回此处即可查看下载链接。
如您没注册本站会员,可以点击注册本站,注册后即可回复下载。



软字幕无法在截图上展现,HDR版本/杜比视界版本截图会出现颜色异常,请使用支持的设备播放!






[img][/img]






[img][/img]

(HDR版本/杜比视界版本,截图会出现颜色异常,请使用支持的设备播放)

小贴士:【影视自媒体解说文案请移步:夏至文案解说网 www.xiazhi.vip

上一篇:[更 早][其它][惊悚][BD-4K]鬼娃回魂3[中文字幕].Child's.Play.3.1991.UHD.BluRay.REMUX.2160p.HEVC.Atmos.TrueHD7.1-Drea
下一篇:[2016][欧美][剧情][WEB-1080P]克里斯汀[简繁英字幕].Christine.2016.1080p.iTunes.WEB-DL.DD5.1.H264- 5.93GB
回复

使用道具 举报

您需要登录后才可以回帖 登录 | 立即注册

本版积分规则

Archiver|手机版|小众纪录片影视聚合

GMT+8, 2024-7-25 00:12 , Processed in 0.402196 second(s), 12 queries , Gzip On, Redis On.

Powered by 小众纪录片影视聚合 @2010-2023

Copyright © 2010-2024, https://www.xzjlp.com/.


免责说明:本站所有内容链接、图文介绍等均来自于互联网网友分享,本站仅支持web页面展示和文字介绍,绝不提供在线观看和存储服务,也不参与录制、上传、压片。若本站收录内容无意侵犯贵司版权,请发邮件到【a885185#163.com】联系本站,我们将在第一时间删除侵权内容。谢谢!

快速回复 返回顶部 返回列表