小众纪录片影视聚合

 找回密码
 立即注册
查看: 7|回复: 0

[蓝光电影] [更 早][其它][惊悚][BD-4K]鬼娃回魂3[中文字幕].Child's.Play.3.1991.UHD.BluRay.REMUX.2160p.HEVC.Atmos.TrueHD7.1-Drea

[复制链接]

112万

主题

112万

帖子

112万

积分

超级版主

Rank: 8Rank: 8

积分
1128817
发表于 7 天前 | 显示全部楼层 |阅读模式


[更 早][其它][惊悚][BD-4K]鬼娃回魂3[中文字幕].Child's.Play.3.1991.UHD.BluRay.REMUX.2160p.HEVC.Atmos.TrueHD7.1-Drea

完整标题:鬼娃回魂3[中文字幕].Child's.Play.3.1991.UHD.BluRay.REMUX.2160p.HEVC.Atmos.TrueHD7.1-DreamHD 50.77GB
◎标  题 鬼娃回魂3
◎译  名 灵异入侵3 / 灵异入侵少年兵团
◎片  名 Child's Play 3
◎年  代 1991
◎产  地 英国 / 美国
◎类  别 惊悚 / 恐怖
◎语  言 英语
◎上映日期 1991-08-30
◎IMDb评分 5.1/10 (43155人评价)
◎IMDb链接 https://www.imdb.com/title/tt0103956/
◎豆瓣评分 6.2/10 (5364人评价)
◎豆瓣链接 https://movie.douban.com/subject/1299591/
◎片  长 90 分钟
◎导  演 杰克·本德 Jack Bender
◎编  剧 唐·曼西尼 Don Mancini
◎演  员 贾斯廷·威林 Justin Whalin
       佩瑞·里维斯 Perrey Reeves
       特拉维斯·费恩 Travis Fine
       布拉德·道里夫 Brad Dourif
       彼得哈斯克尔 Peter Haskell
       戴金·马修斯 Dakin Matthews
       安德鲁·罗宾逊 Andrew Robinson
       博克伯恩斯 Burke Byrnes
       马修·沃克 Matthew Walker
       Edan Gross Edan Gross
       理查马里恩 Richard Marion
       Kent Winfrey Kent Winfrey
       David Sosna David Sosna
       罗恩·法斯勒 Ron Fassler
       马克·克里斯托弗·劳伦斯 Mark Christopher Lawrence
       亨利·G.桑德斯 Henry G. Sanders
       迈克尔·基耶福 Michael Chieffo
◎简  介
    楚其被熔毁之后八年,玩具公司为打开销路考虑再度推出“好家伙”公仔,他们将当年楚其的残骸回收,再度制作使其复活,获得重生的楚其为了完成灵魂转移,将玩具公司总裁杀死后消失于夜色。安迪(Justin Whalin 饰)经历了八年收养生活,此时来到一所军校就读,当年楚其留给他的恐怖回忆仍然挥之不去,而在学校中应付严苛的助理上校谢尔顿(Travis Fine 饰)亦并不轻松。楚其将自己邮寄到军校以寻找安迪,不料却被小学员二等兵泰勒占为已有,楚其认为自己的身体获得新生,可以摆脱必须占有安迪身体的宿命,随即把自己的秘密告知泰勒,并计划夺走泰勒的肉身。安迪不能坐视同侪受害,再度与楚其展开抗争……##### MediaInfo ######
General
Unique ID                                : 105885067178134200989027006911909270319 (0x4FA8B8DF18B388AD7F5833749F29132F)
Complete name                            : Child's.Play.3.1991.UHD.BluRay.REMUX.2160p.HEVC.Atmos.TrueHD7.1-DreamHD.mkv
Duration                                 : 1 h 29 min
Overall bit rate mode                    : Variable
Overall bit rate                         : 80.9 Mb/s
Video
ID                                       : 1
ID in the original source medium         : 4113 (0x1011)
Format                                   : HEVC
Format/Info                              : High Efficiency Video Coding
Format profile                           : Main [email protected]@High
HDR format                               : SMPTE ST 2086, HDR10 compatible
Codec ID                                 : V_MPEGH/ISO/HEVC
Duration                                 : 1 h 29 min
Bit rate                                 : 76.5 Mb/s
Width                                    : 3 840 pixels
Height                                   : 2 160 pixels
Display aspect ratio                     : 16:9
Frame rate mode                          : Constant
Frame rate                               : 24.000 FPS
Color space                              : YUV
Chroma subsampling                       : 4:2:0 (Type 2)
Bit depth                                : 10 bits
Bits/(Pixel*Frame)                       : 0.384
Stream size                              : 48.0 GiB (95%)
Default                                  : Yes
Forced                                   : No
Color range                              : Limited
Color primaries                          : BT.2020
Transfer characteristics                 : PQ
Matrix coefficients                      : BT.2020 non-constant
Mastering display color primaries        : Display P3
Mastering display luminance              : min: 0.0001 cd/m2, max: 1000 cd/m2
Maximum Content Light Level              : 1103 cd/m2
Maximum Frame-Average Light Level        : 604 cd/m2
Original source medium                   : Blu-ray
Audio
ID                                       : 2
ID in the original source medium         : 4352 (0x1100)
Format                                   : MLP FBA 16-ch
Format/Info                              : Meridian Lossless Packing FBA with 16-channel presentation
Commercial name                          : Dolby TrueHD with Dolby Atmos
Codec ID                                 : A_TRUEHD
Duration                                 : 1 h 29 min
Bit rate mode                            : Variable
Bit rate                                 : 4 111 kb/s
Maximum bit rate                         : 6 951 kb/s
Channel(s)                               : 8 channels
Channel layout                           : L R C LFE Ls Rs Lb Rb
Sampling rate                            : 48.0 kHz
Frame rate                               : 1 200.000 FPS (40 SPF)
Compression mode                         : Lossless
Stream size                              : 2.58 GiB (5%)
Language                                 : English
Default                                  : Yes
Forced                                   : No
Original source medium                   : Blu-ray
Number of dynamic objects                : 11
Bed channel count                        : 1 channel
Bed channel configuration                : LFE
Text #1
ID                                       : 3
ID in the original source medium         : 4768 (0x12A0)
Format                                   : PGS
Muxing mode                              : zlib
Codec ID                                 : S_HDMV/PGS
Codec ID/Info                            : Picture based subtitle format used on BDs/HD-DVDs
Duration                                 : 1 h 27 min
Bit rate                                 : 30.7 kb/s
Frame rate                               : 0.453 FPS
Count of elements                        : 2384
Stream size                              : 19.3 MiB (0%)
Language                                 : English
Default                                  : Yes
Forced                                   : No
Original source medium                   : Blu-ray
Text #2
ID                                       : 4
ID in the original source medium         : 4769 (0x12A1)
Format                                   : PGS
Muxing mode                              : zlib
Codec ID                                 : S_HDMV/PGS
Codec ID/Info                            : Picture based subtitle format used on BDs/HD-DVDs
Duration                                 : 1 h 25 min
Bit rate                                 : 95.2 kb/s
Frame rate                               : 0.629 FPS
Count of elements                        : 3235
Stream size                              : 58.4 MiB (0%)
Language                                 : Chinese
Default                                  : Yes
Forced                                   : No
Original source medium                   : Blu-ray
Text #3
ID                                       : 5
ID in the original source medium         : 4770 (0x12A2)
Format                                   : PGS
Muxing mode                              : zlib
Codec ID                                 : S_HDMV/PGS
Codec ID/Info                            : Picture based subtitle format used on BDs/HD-DVDs
Duration                                 : 1 h 25 min
Bit rate                                 : 76.6 kb/s
Frame rate                               : 0.629 FPS
Count of elements                        : 3235
Stream size                              : 47.0 MiB (0%)
Language                                 : Chinese
Default                                  : Yes
Forced                                   : No
Original source medium                   : Blu-ray
Text #4
ID                                       : 6
ID in the original source medium         : 4771 (0x12A3)
Format                                   : PGS
Muxing mode                              : zlib
Codec ID                                 : S_HDMV/PGS
Codec ID/Info                            : Picture based subtitle format used on BDs/HD-DVDs
Duration                                 : 1 h 25 min
Bit rate                                 : 95.5 kb/s
Frame rate                               : 0.629 FPS
Count of elements                        : 3235
Stream size                              : 58.6 MiB (0%)
Language                                 : Chinese
Default                                  : Yes
Forced                                   : No
Original source medium                   : Blu-ray
Text #5
ID                                       : 7
ID in the original source medium         : 4772 (0x12A4)
Format                                   : PGS
Muxing mode                              : zlib
Codec ID                                 : S_HDMV/PGS
Codec ID/Info                            : Picture based subtitle format used on BDs/HD-DVDs
Duration                                 : 1 h 25 min
Bit rate                                 : 77.0 kb/s
Frame rate                               : 0.629 FPS
Count of elements                        : 3235
Stream size                              : 47.2 MiB (0%)
Language                                 : Chinese
Default                                  : Yes
Forced                                   : No
Original source medium                   : Blu-ray
Menu
00:00:00.000                             : en:Chapter 01
00:07:13.458                             : en:Chapter 02
00:14:21.916                             : en:Chapter 03
00:21:04.833                             : en:Chapter 04
00:29:23.125                             : en:Chapter 05
00:37:10.041                             : en:Chapter 06
00:46:07.041                             : en:Chapter 07
00:52:26.791                             : en:Chapter 08
01:00:14.416                             : en:Chapter 09
01:08:04.250                             : en:Chapter 10
01:15:32.250                             : en:Chapter 11
01:21:54.250                             : en:Chapter 12
部分资源为软字幕,移动端推荐播放器:MxPlayer,nPlayer,infuse ,其他播放器请自行尝试。
部分资源为软字幕,电脑端推荐播放器:PotPlayer,完美解码,KMPLAYER,其他播放器请自行尝试。
下载端推荐纯BT下载软件:qBittorrent,Bitcomet,uTorrent ,其他下载软件请自行尝试。不支持吸血迅雷。






~~~~~~~~~~~~~~~~~~~~~~~~~~~~~~~~~~~~~~~~~
[更 早][其它][惊悚][BD-4K]鬼娃回魂3[中文字幕].Child's.Play.3.1991.UHD.BluRay.REMUX.2160p.HEVC.Atmos.TrueHD7.1-Drea

【文件列表】:


Child's.Play.3.1991.UHD.BluRay.REMUX.2160p.HEVC.Atmos.TrueHD7.1-DreamHD.



【下载地址列表】:


游客
文件下载链接就在这里,在您回复评论成功后才能显示。
请勿回复无意义的灌水内容。


下拉页面到最底部回复或者【点击此处快捷回复】,回复后返回此处即可查看下载链接。
如您没注册本站会员,可以点击注册本站,注册后即可回复下载。



软字幕无法在截图上展现,HDR版本/杜比视界版本截图会出现颜色异常,请使用支持的设备播放!






[img][/img]






[img][/img]

(HDR版本/杜比视界版本,截图会出现颜色异常,请使用支持的设备播放)

小贴士:【影视自媒体解说文案请移步:夏至文案解说网 www.xiazhi.vip

上一篇:[更 早][欧美][惊悚][BD-4K]鬼娃回魂2[国英多音轨/中英字幕].Child's.Play.2.1990.UHD.BluRay.REMUX.2160p.HEVC.Atmos.TrueHD7.
下一篇:[更 早][欧美][惊悚][BD-4K]鬼娃回魂[国英多音轨/中英字幕].Child's.Play.1988.UHD.BluRay.REMUX.2160p.HEVC.Atmos.TrueHD7.1.2
回复

使用道具 举报

您需要登录后才可以回帖 登录 | 立即注册

本版积分规则

Archiver|手机版|小众纪录片影视聚合

GMT+8, 2024-7-16 23:51 , Processed in 0.225811 second(s), 12 queries , Gzip On, Redis On.

Powered by 小众纪录片影视聚合 @2010-2023

Copyright © 2010-2024, https://www.xzjlp.com/.


免责说明:本站所有内容链接、图文介绍等均来自于互联网网友分享,本站仅支持web页面展示和文字介绍,绝不提供在线观看和存储服务,也不参与录制、上传、压片。若本站收录内容无意侵犯贵司版权,请发邮件到【a885185#163.com】联系本站,我们将在第一时间删除侵权内容。谢谢!

快速回复 返回顶部 返回列表