小众纪录片影视聚合

 找回密码
 立即注册
查看: 2|回复: 0

[蓝光电影] [2006][欧美][动作][BD-4K]怒火攻心[国语配音/中文字幕/特效字幕].Crank.2006.UHD.BluRay.REMUX.2160p.HEVC.Atmos.TrueHD7.1-Drea

[复制链接]

116万

主题

116万

帖子

116万

积分

超级版主

Rank: 8Rank: 8

积分
1167997
发表于 2024-7-9 21:37:51 | 显示全部楼层 |阅读模式


[2006][欧美][动作][BD-4K]怒火攻心[国语配音/中文字幕/特效字幕].Crank.2006.UHD.BluRay.REMUX.2160p.HEVC.Atmos.TrueHD7.1-Drea

完整标题:怒火攻心[国语配音/中文字幕/特效字幕].Crank.2006.UHD.BluRay.REMUX.2160p.HEVC.Atmos.TrueHD7.1-DreamHD 40.43GB
◎标  题 怒火攻心
◎译  名 快克杀手(台) / 死就在转身间
◎片  名 Crank
◎年  代 2006
◎产  地 美国
◎类  别 动作 / 惊悚 / 犯罪
◎语  言 英语 / 西班牙语 / 韩语
◎上映日期 2006-09-01(美国)
◎IMDb评分 6.9/10 (255736人评价)
◎IMDb链接 https://www.imdb.com/title/tt0479884/
◎豆瓣评分 7.5/10 (91612人评价)
◎豆瓣链接 https://movie.douban.com/subject/1849959/
◎片  长 88分钟 / 94分钟(导演剪辑版)
◎导  演 马克·耐沃尔代 Mark Neveldine
       布莱恩·泰勒 Brian Taylor
◎编  剧 马克·耐沃尔代 Mark Neveldine
       布莱恩·泰勒 Brian Taylor
◎演  员 杰森·斯坦森 Jason Statham
       艾米·斯马特 Amy Smart
       何塞·巴勃罗·坎蒂略 Jose Pablo Cantillo
       艾弗连·莱米雷斯 Efren Ramirez
       德怀特·尤科姆 Dwight Yoakam
       Sean Graham Sean Graham
       雷诺·维尔森 Reno Wilson
       埃迪·佩雷斯 Eddie Perez
       特洛伊·罗宾逊 Troy Robinson
       杰伊·斯特凡 Jai Stefan
       Daniel Stevens Daniel Stevens
       基内·扬 Keone Young
       山姆·威特沃 Sam Witwer
       艾迪·盖瑟吉 Edi Gathegi
       查斯特·班宁顿 Chester Bennington
       弗朗西斯·卡普拉 Francis Capra
       迈克尔·麦克拉法提 Michael McLafferty
       瓦拉里·雷·米勒 Valarie Rae Miller
       唐尼·史密斯 Donnie Smith
       Frank Blake Frank Blake
       格伦·豪尔顿 Glenn Howerton
       康迪斯·A·布恩罗斯特罗 Candice A. Buenrostro
        India King
        Michael J. Gonzalez
        Jacki R. Chan
◎简  介
    杀手切弗(杰森•斯达森Jason Statham 饰)遭人暗算,死对头瑞奇兄弟向其体内注射了致命毒物。切弗醒后急火攻心,痛苦不堪。为了寻找解药,他闯入了奥兰多的黑帮据点,但一无所获。走投无路的切弗前往贝弗利山庄,向老大卡雷托求救,但是后者称他应对唐金事件负责。切弗的医生告诉他,只有提高体内肾上腺素的含量,才能维持生命。愤怒的切弗为了复仇,在王子宾馆干掉了瑞奇的哥哥,并闯进医院到处搜罗相关药品,结果引来大批警察。虽然成了全城通缉的要犯,但是切弗还是不顾一切地搭救女友伊芙(艾米•斯玛特Amy Smart 饰)。在躲过追杀后,他对女友坦白了这一切的源头,是因为他曾经放过的香港三合会毒品大亨唐金,所以仇家才对他下毒手。女友深明大义,与切弗共同踏上了复仇之路……##### MediaInfo ######
General
Unique ID                                : 145815858064604646096493100338510562672 (0x6DB31CDC9D6102FAE75FBCB61CCC0570)
Complete name                            : Crank.2006.UHD.BluRay.REMUX.2160p.HEVC.Atmos.TrueHD7.1-DreamHD.mkv
Duration                                 : 1 h 27 min
Overall bit rate mode                    : Variable
Overall bit rate                         : 66.1 Mb/s
Video
ID                                       : 1
ID in the original source medium         : 4113 (0x1011)
Format                                   : HEVC
Format/Info                              : High Efficiency Video Coding
Format profile                           : Main [email protected]@High
HDR format                               : SMPTE ST 2086, HDR10 compatible
Codec ID                                 : V_MPEGH/ISO/HEVC
Duration                                 : 1 h 27 min
Bit rate                                 : 60.0 Mb/s
Width                                    : 3 840 pixels
Height                                   : 2 160 pixels
Display aspect ratio                     : 16:9
Frame rate mode                          : Constant
Frame rate                               : 23.976 (24000/1001) FPS
Color space                              : YUV
Chroma subsampling                       : 4:2:0 (Type 2)
Bit depth                                : 10 bits
Bits/(Pixel*Frame)                       : 0.302
Stream size                              : 36.7 GiB (91%)
Default                                  : Yes
Forced                                   : No
Color range                              : Limited
Color primaries                          : BT.2020
Transfer characteristics                 : PQ
Matrix coefficients                      : BT.2020 non-constant
Mastering display color primaries        : Display P3
Mastering display luminance              : min: 0.0001 cd/m2, max: 1000 cd/m2
Maximum Content Light Level              : 732 cd/m2
Maximum Frame-Average Light Level        : 213 cd/m2
Original source medium                   : Blu-ray
Audio
ID                                       : 2
ID in the original source medium         : 4352 (0x1100)
Format                                   : MLP FBA 16-ch
Format/Info                              : Meridian Lossless Packing FBA with 16-channel presentation
Commercial name                          : Dolby TrueHD with Dolby Atmos
Codec ID                                 : A_TRUEHD
Duration                                 : 1 h 27 min
Bit rate mode                            : Variable
Bit rate                                 : 5 906 kb/s
Maximum bit rate                         : 8 640 kb/s
Channel(s)                               : 8 channels
Channel layout                           : L R C LFE Ls Rs Lb Rb
Sampling rate                            : 48.0 kHz
Frame rate                               : 1 200.000 FPS (40 SPF)
Compression mode                         : Lossless
Stream size                              : 3.61 GiB (9%)
Language                                 : English
Default                                  : Yes
Forced                                   : No
Original source medium                   : Blu-ray
Number of dynamic objects                : 13
Bed channel count                        : 1 channel
Bed channel configuration                : LFE
Text #1
ID                                       : 3
ID in the original source medium         : 4769 (0x12A1)
Format                                   : PGS
Muxing mode                              : zlib
Codec ID                                 : S_HDMV/PGS
Codec ID/Info                            : Picture based subtitle format used on BDs/HD-DVDs
Duration                                 : 1 h 24 min
Bit rate                                 : 36.0 kb/s
Frame rate                               : 0.444 FPS
Count of elements                        : 2242
Stream size                              : 21.6 MiB (0%)
Language                                 : English
Default                                  : Yes
Forced                                   : No
Original source medium                   : Blu-ray
Text #2
ID                                       : 4
ID in the original source medium         : 4771 (0x12A3)
Format                                   : PGS
Muxing mode                              : zlib
Codec ID                                 : S_HDMV/PGS
Codec ID/Info                            : Picture based subtitle format used on BDs/HD-DVDs
Duration                                 : 1 h 20 min
Bit rate                                 : 29.4 kb/s
Frame rate                               : 0.341 FPS
Count of elements                        : 1655
Stream size                              : 17.0 MiB (0%)
Language                                 : Chinese
Default                                  : Yes
Forced                                   : No
Original source medium                   : Blu-ray
Text #3
ID                                       : 5
ID in the original source medium         : 4772 (0x12A4)
Format                                   : PGS
Muxing mode                              : zlib
Codec ID                                 : S_HDMV/PGS
Codec ID/Info                            : Picture based subtitle format used on BDs/HD-DVDs
Duration                                 : 1 h 20 min
Bit rate                                 : 13.6 kb/s
Frame rate                               : 0.341 FPS
Count of elements                        : 1655
Stream size                              : 7.84 MiB (0%)
Language                                 : Chinese
Default                                  : Yes
Forced                                   : No
Original source medium                   : Blu-ray
Text #4
ID                                       : 6
ID in the original source medium         : 4773 (0x12A5)
Format                                   : PGS
Muxing mode                              : zlib
Codec ID                                 : S_HDMV/PGS
Codec ID/Info                            : Picture based subtitle format used on BDs/HD-DVDs
Duration                                 : 1 h 20 min
Bit rate                                 : 31.1 kb/s
Frame rate                               : 0.341 FPS
Count of elements                        : 1655
Stream size                              : 18.0 MiB (0%)
Language                                 : Chinese
Default                                  : Yes
Forced                                   : No
Original source medium                   : Blu-ray
Text #5
ID                                       : 7
ID in the original source medium         : 4774 (0x12A6)
Format                                   : PGS
Muxing mode                              : zlib
Codec ID                                 : S_HDMV/PGS
Codec ID/Info                            : Picture based subtitle format used on BDs/HD-DVDs
Duration                                 : 1 h 20 min
Bit rate                                 : 15.3 kb/s
Frame rate                               : 0.341 FPS
Count of elements                        : 1655
Stream size                              : 8.83 MiB (0%)
Language                                 : Chinese
Default                                  : Yes
Forced                                   : No
Original source medium                   : Blu-ray
Menu
00:00:00.000                             : en:Chapter 01
00:04:45.410                             : en:Chapter 02
00:07:54.515                             : en:Chapter 03
00:13:47.076                             : en:Chapter 04
00:21:17.985                             : en:Chapter 05
00:23:52.597                             : en:Chapter 06
00:28:39.008                             : en:Chapter 07
00:35:01.682                             : en:Chapter 08
00:39:15.519                             : en:Chapter 09
00:45:54.543                             : en:Chapter 10
00:52:32.357                             : en:Chapter 11
00:54:30.475                             : en:Chapter 12
01:01:33.564                             : en:Chapter 13
01:04:41.752                             : en:Chapter 14
01:08:22.306                             : en:Chapter 15
01:18:45.345                             : en:Chapter 16
部分资源为软字幕,移动端推荐播放器:MxPlayer,nPlayer,infuse ,其他播放器请自行尝试。
部分资源为软字幕,电脑端推荐播放器:PotPlayer,完美解码,KMPLAYER,其他播放器请自行尝试。
下载端推荐纯BT下载软件:qBittorrent,Bitcomet,uTorrent ,其他下载软件请自行尝试。不支持吸血迅雷。






~~~~~~~~~~~~~~~~~~~~~~~~~~~~~~~~~~~~~~~~~
[2006][欧美][动作][BD-4K]怒火攻心[国语配音/中文字幕/特效字幕].Crank.2006.UHD.BluRay.REMUX.2160p.HEVC.Atmos.TrueHD7.1-Drea

【文件列表】:


Crank.2006.UHD.BluRay.REMUX.2160p.HEVC.Atmos.TrueHD7.1-DreamHD.



【下载地址列表】:


游客
文件下载链接就在这里,在您回复评论成功后才能显示。
请勿回复无意义的灌水内容。


下拉页面到最底部回复或者【点击此处快捷回复】,回复后返回此处即可查看下载链接。
如您没注册本站会员,可以点击注册本站,注册后即可回复下载。



软字幕无法在截图上展现,HDR版本/杜比视界版本截图会出现颜色异常,请使用支持的设备播放!






[img][/img]






[img][/img]

(HDR版本/杜比视界版本,截图会出现颜色异常,请使用支持的设备播放)

小贴士:【影视自媒体解说文案请移步:夏至文案解说网 www.xiazhi.vip

上一篇:[更 早][欧美][剧情][WEB-1080P]僵尸新娘[简繁英字幕].Corpse.Bride.2005.1080p.iTunes.WEB-DL.DD5.1.H264- 3.33GB
下一篇:[2022][其它][剧情][BD-1080P]未来罪行[中文字幕].Crimes.of.the.Future.2022.BluRay.REMUX.1080p.AVC.DTS-HD.MA5.1-
回复

使用道具 举报

您需要登录后才可以回帖 登录 | 立即注册

本版积分规则

Archiver|手机版|小众纪录片影视聚合

GMT+8, 2024-7-24 23:32 , Processed in 0.105324 second(s), 12 queries , Gzip On, Redis On.

Powered by 小众纪录片影视聚合 @2010-2023

Copyright © 2010-2024, https://www.xzjlp.com/.


免责说明:本站所有内容链接、图文介绍等均来自于互联网网友分享,本站仅支持web页面展示和文字介绍,绝不提供在线观看和存储服务,也不参与录制、上传、压片。若本站收录内容无意侵犯贵司版权,请发邮件到【a885185#163.com】联系本站,我们将在第一时间删除侵权内容。谢谢!

快速回复 返回顶部 返回列表