小众纪录片影视聚合

 找回密码
 立即注册
查看: 12|回复: 0

[蓝光电影] [2022][欧美][动作][BD-4K]真人快打传奇:雪盲[中文字幕].2022.UHD.BluRay.REMUX.2160p.HEVC.DTS-HD.MA5.1- 30.75GB

[复制链接]

116万

主题

116万

帖子

116万

积分

超级版主

Rank: 8Rank: 8

积分
1167997
发表于 2024-7-9 21:40:23 | 显示全部楼层 |阅读模式


[2022][欧美][动作][BD-4K]真人快打传奇:雪盲[中文字幕].2022.UHD.BluRay.REMUX.2160p.HEVC.DTS-HD.MA5.1- 30.75GB

完整标题:真人快打传奇:雪盲[中文字幕].2022.UHD.BluRay.REMUX.2160p.HEVC.DTS-HD.MA5.1-DreamHD 30.75GB
◎标  题 真人快打传奇:雪盲
◎译  名 真人快打传奇:盲雪
◎片  名 Mortal Kombat Legends: Snow Blind
◎年  代 2022
◎产  地 美国
◎类  别 动作 / 动画 / 冒险
◎语  言 英语
◎上映日期 2022-10-09(美国)
◎IMDb评分 6.6/10 (1997人评价)
◎IMDb链接 https://www.imdb.com/title/tt21477618/
◎豆瓣评分 6.5/10 (842人评价)
◎豆瓣链接 https://movie.douban.com/subject/36055471/
◎片  长 82分钟
◎导  演 里克·莫拉莱斯 Rick Morales
◎编  剧 杰瑞米·亚当斯 Jeremy Adams
       埃德·布恩 Ed Boon
       约翰·托拜亚斯 John Tobias
◎演  员 大卫·文翰 David Wenham
       曼尼·贾希尼托 Manny Jacinto
       尤里·洛文塔尔 Yuri Lowenthal
       科斯顿·约翰 Keston John
       黛布拉·威尔逊 Debra Wilson
       基思·西尔弗斯坦 Keith Silverstein
       柯特奈·泰勒 Courtenay Taylor
       素玛立·蒙塔诺 Sumalee Montano
       帕特里克·赛兹 Patrick Seitz
       袁文忠 Ron Yuan
       Artt Butler Artt Butler
◎简  介
    随着卡诺和黑龙在全球范围内造成严重破坏,一位名叫 Kenshi 的年轻战士将不得不超越自己的局限,迎接迫在眉睫的 Outworld 威胁##### MediaInfo ######
General
Unique ID                                : 288086748680385525722502038783329426186 (0xD8BB7D5589FB6FB470D9C20B16F9DB0A)
Complete name                            : Mortal.Kombat.Legends.Snow.Blind.2022.UHD.BluRay.REMUX.2160p.HEVC.DTS-HD.MA5.1-DreamHD.mkv
Duration                                 : 1 h 21 min
Overall bit rate mode                    : Variable
Overall bit rate                         : 53.7 Mb/s
Video
ID                                       : 1
ID in the original source medium         : 4113 (0x1011)
Format                                   : HEVC
Format/Info                              : High Efficiency Video Coding
Format profile                           : Main [email protected]@High
HDR format                               : SMPTE ST 2086, HDR10 compatible
Codec ID                                 : V_MPEGH/ISO/HEVC
Duration                                 : 1 h 21 min
Bit rate                                 : 51.2 Mb/s
Width                                    : 3 840 pixels
Height                                   : 2 160 pixels
Display aspect ratio                     : 16:9
Frame rate mode                          : Constant
Frame rate                               : 23.976 (24000/1001) FPS
Color space                              : YUV
Chroma subsampling                       : 4:2:0 (Type 2)
Bit depth                                : 10 bits
Bits/(Pixel*Frame)                       : 0.258
Stream size                              : 29.3 GiB (95%)
Writing library                          : ATEME Titan File 3.9.6 (4.9.6.2)        
Default                                  : Yes
Forced                                   : No
Color range                              : Limited
Color primaries                          : BT.2020
Transfer characteristics                 : PQ
Matrix coefficients                      : BT.2020 non-constant
Mastering display color primaries        : BT.2020
Mastering display luminance              : min: 0.0050 cd/m2, max: 4000 cd/m2
Maximum Content Light Level              : 2754 cd/m2
Maximum Frame-Average Light Level        : 2639 cd/m2
Original source medium                   : Blu-ray
Audio
ID                                       : 2
ID in the original source medium         : 4352 (0x1100)
Format                                   : DTS XLL
Format/Info                              : Digital Theater Systems
Commercial name                          : DTS-HD Master Audio
Codec ID                                 : A_DTS
Duration                                 : 1 h 21 min
Bit rate mode                            : Variable
Bit rate                                 : 2 416 kb/s
Channel(s)                               : 6 channels
Channel layout                           : C L R Ls Rs LFE
Sampling rate                            : 48.0 kHz
Frame rate                               : 93.750 FPS (512 SPF)
Bit depth                                : 24 bits
Compression mode                         : Lossless
Stream size                              : 1.38 GiB (5%)
Language                                 : English
Default                                  : Yes
Forced                                   : No
Original source medium                   : Blu-ray
Text #1
ID                                       : 3
ID in the original source medium         : 4768 (0x12A0)
Format                                   : PGS
Muxing mode                              : zlib
Codec ID                                 : S_HDMV/PGS
Codec ID/Info                            : Picture based subtitle format used on BDs/HD-DVDs
Duration                                 : 1 h 18 min
Bit rate                                 : 29.8 kb/s
Frame rate                               : 0.501 FPS
Count of elements                        : 2366
Stream size                              : 16.8 MiB (0%)
Language                                 : English
Default                                  : Yes
Forced                                   : No
Original source medium                   : Blu-ray
Text #2
ID                                       : 4
ID in the original source medium         : 4771 (0x12A3)
Format                                   : PGS
Muxing mode                              : zlib
Codec ID                                 : S_HDMV/PGS
Codec ID/Info                            : Picture based subtitle format used on BDs/HD-DVDs
Duration                                 : 1 h 16 min
Bit rate                                 : 16.4 kb/s
Frame rate                               : 0.321 FPS
Count of elements                        : 1464
Stream size                              : 8.93 MiB (0%)
Language                                 : Chinese
Default                                  : Yes
Forced                                   : No
Original source medium                   : Blu-ray
Text #3
ID                                       : 5
ID in the original source medium         : 4772 (0x12A4)
Format                                   : PGS
Muxing mode                              : zlib
Codec ID                                 : S_HDMV/PGS
Codec ID/Info                            : Picture based subtitle format used on BDs/HD-DVDs
Duration                                 : 1 h 16 min
Bit rate                                 : 16.8 kb/s
Frame rate                               : 0.321 FPS
Count of elements                        : 1464
Stream size                              : 9.13 MiB (0%)
Language                                 : Chinese
Default                                  : Yes
Forced                                   : No
Original source medium                   : Blu-ray
Text #4
ID                                       : 6
ID in the original source medium         : 4773 (0x12A5)
Format                                   : PGS
Muxing mode                              : zlib
Codec ID                                 : S_HDMV/PGS
Codec ID/Info                            : Picture based subtitle format used on BDs/HD-DVDs
Duration                                 : 1 h 16 min
Bit rate                                 : 28.3 kb/s
Frame rate                               : 0.321 FPS
Count of elements                        : 1464
Stream size                              : 15.4 MiB (0%)
Language                                 : Chinese
Default                                  : Yes
Forced                                   : No
Original source medium                   : Blu-ray
Text #5
ID                                       : 7
ID in the original source medium         : 4774 (0x12A6)
Format                                   : PGS
Muxing mode                              : zlib
Codec ID                                 : S_HDMV/PGS
Codec ID/Info                            : Picture based subtitle format used on BDs/HD-DVDs
Duration                                 : 1 h 16 min
Bit rate                                 : 28.6 kb/s
Frame rate                               : 0.321 FPS
Count of elements                        : 1464
Stream size                              : 15.6 MiB (0%)
Language                                 : Chinese
Default                                  : Yes
Forced                                   : No
Original source medium                   : Blu-ray
Menu
00:00:00.000                             : en:Chapter 01
00:05:10.601                             : en:Chapter 02
00:12:24.201                             : en:Chapter 03
00:16:32.241                             : en:Chapter 04
00:24:45.692                             : en:Chapter 05
00:30:57.564                             : en:Chapter 06
00:38:30.474                             : en:Chapter 07
00:45:42.781                             : en:Chapter 08
00:55:27.115                             : en:Chapter 09
01:05:02.899                             : en:Chapter 10
01:11:51.724                             : en:Chapter 11
01:18:50.350                             : en:Chapter 12
部分资源为软字幕,移动端推荐播放器:MxPlayer,nPlayer,infuse ,其他播放器请自行尝试。
部分资源为软字幕,电脑端推荐播放器:PotPlayer,完美解码,KMPLAYER,其他播放器请自行尝试。
下载端推荐纯BT下载软件:qBittorrent,Bitcomet,uTorrent ,其他下载软件请自行尝试。不支持吸血迅雷。






~~~~~~~~~~~~~~~~~~~~~~~~~~~~~~~~~~~~~~~~~
[2022][欧美][动作][BD-4K]真人快打传奇:雪盲[中文字幕].2022.UHD.BluRay.REMUX.2160p.HEVC.DTS-HD.MA5.1- 30.75GB

【文件列表】:


2022.UHD.BluRay.REMUX.2160p.HEVC.DTS-HD.MA5.1-DreamHD.



【下载地址列表】:


游客
文件下载链接就在这里,在您回复评论成功后才能显示。
请勿回复无意义的灌水内容。


下拉页面到最底部回复或者【点击此处快捷回复】,回复后返回此处即可查看下载链接。
如您没注册本站会员,可以点击注册本站,注册后即可回复下载。



软字幕无法在截图上展现,HDR版本/杜比视界版本截图会出现颜色异常,请使用支持的设备播放!






[img][/img]






[img][/img]

(HDR版本/杜比视界版本,截图会出现颜色异常,请使用支持的设备播放)

小贴士:【影视自媒体解说文案请移步:夏至文案解说网 www.xiazhi.vip

上一篇:[2022][欧美][动作][BD-1080P]真人快打传奇:雪盲[中文字幕].Mortal.Kombat.Legends.Snow.Blind.2022.BluRay.REMUX.1080p.AVC.DTS
下一篇:[2011][大陆][喜剧][BD-1080P]神奇侠侣[国语配音/中文字幕].Mr.and.Mrs.Incredible.2011.BluRay.REMUX.1080p.AVC.TrueHD5.1.2Aud
回复

使用道具 举报

您需要登录后才可以回帖 登录 | 立即注册

本版积分规则

Archiver|手机版|小众纪录片影视聚合

GMT+8, 2024-7-24 23:15 , Processed in 0.076656 second(s), 12 queries , Gzip On, Redis On.

Powered by 小众纪录片影视聚合 @2010-2023

Copyright © 2010-2024, https://www.xzjlp.com/.


免责说明:本站所有内容链接、图文介绍等均来自于互联网网友分享,本站仅支持web页面展示和文字介绍,绝不提供在线观看和存储服务,也不参与录制、上传、压片。若本站收录内容无意侵犯贵司版权,请发邮件到【a885185#163.com】联系本站,我们将在第一时间删除侵权内容。谢谢!

快速回复 返回顶部 返回列表