小众纪录片影视聚合

 找回密码
 立即注册
查看: 4|回复: 0

[蓝光电影] [2011][大陆][喜剧][BD-1080P]神奇侠侣[国语配音/中文字幕].Mr.and.Mrs.Incredible.2011.BluRay.REMUX.1080p.AVC.TrueHD5.1.2Aud

[复制链接]

116万

主题

116万

帖子

116万

积分

超级版主

Rank: 8Rank: 8

积分
1167997
发表于 2024-7-9 21:40:27 | 显示全部楼层 |阅读模式


[2011][大陆][喜剧][BD-1080P]神奇侠侣[国语配音/中文字幕].Mr.and.Mrs.Incredible.2011.BluRay.REMUX.1080p.AVC.TrueHD5.1.2Aud

完整标题:神奇侠侣[国语配音/中文字幕].Mr.and.Mrs.Incredible.2011.BluRay.REMUX.1080p.AVC.TrueHD5.1.2Audio-DreamHD 17.88GB
◎标  题 神奇侠侣
◎译  名 Mr. and Mrs. Incredible
◎片  名 神奇俠侶
◎年  代 2011
◎产  地 中国大陆 / 中国香港
◎类  别 喜剧 / 古装
◎语  言 粤语
◎上映日期 2011-02-03(中国大陆)
◎IMDb评分 5.3/10 (551人评价)
◎IMDb链接 https://www.imdb.com/title/tt1623759/
◎豆瓣评分 5.0/10 (51758人评价)
◎豆瓣链接 https://movie.douban.com/subject/4728471/
◎片  长 100分钟
◎导  演 谷德昭 Vincent Kok
◎编  剧 冯勉恒 Min Hun Fung
       谷德昭 Vincent Kok
       陈宝骏 Po-Chun Chan
◎演  员 古天乐 Louis Koo
       吴君如 Sandra Ng
       李菁 Jing Li
       王柏杰 Bo-Chieh Wang
       何沄伟 Yunwei He
       文章 Zhang Wen
       李沁 Qin Li
       闫思彤
       黄小兰 Xiaolan Huang
       刘思博 Sibo Liu
       姚澜 Lan Yao
       陈迪凯 Water Chan Tik-Hoi
◎简  介
    在一个远离京城的幽静田野,胡子拉碴的保长欢哥(古天乐 饰)慵懒倦怠,过着百无聊赖的生活。他的老婆红姐(吴君如 饰)经营一家包子铺,厨艺上佳,持家有道。夫妻俩看似讷言平庸,胸无大志,却很少有人知道他们曾经有着怎样的传奇经历。遥想当年,京城出了两个名震江湖的侠客——炯炯侠和香香侠,他们济弱扶贫,惩恶扬善。两个大侠互相较劲,狭路相逢,却由此一见钟情,携手归隐江湖。他们隐藏着自己的一身武功和令人惊叹的超能力,决心安顿下来买间房子再生个孩子。                                    谁曾想事与愿违,夫妇俩始终没有孩子令他们颇为烦恼,而就在此时一场武林大会突然在小山村召开,他们沉静的生活被彻底打破……##### MediaInfo ######
General
Unique ID                                : 273074319858211947391457492096170973288 (0xCD7033727ED12B05251C51D56E6DD868)
Complete name                            : Mr.and.Mrs.Incredible.2011.BluRay.REMUX.1080p.AVC.TrueHD5.1.2Audio-DreamHD.mkv
Duration                                 : 1 h 40 min
Overall bit rate mode                    : Variable
Overall bit rate                         : 25.5 Mb/s
Video
ID                                       : 1
ID in the original source medium         : 4113 (0x1011)
Format                                   : AVC
Format/Info                              : Advanced Video Codec
Format profile                           : [email protected]
Format settings                          : CABAC / 4 Ref Frames
Format settings, CABAC                   : Yes
Format settings, Reference frames        : 4 frames
Codec ID                                 : V_MPEG4/ISO/AVC
Duration                                 : 1 h 40 min
Bit rate mode                            : Variable
Bit rate                                 : 19.8 Mb/s
Maximum bit rate                         : 25.0 Mb/s
Width                                    : 1 920 pixels
Height                                   : 1 080 pixels
Display aspect ratio                     : 16:9
Frame rate mode                          : Constant
Frame rate                               : 24.000 FPS
Color space                              : YUV
Chroma subsampling                       : 4:2:0
Bit depth                                : 8 bits
Scan type                                : Progressive
Bits/(Pixel*Frame)                       : 0.398
Stream size                              : 13.9 GiB (78%)
Default                                  : Yes
Forced                                   : No
Original source medium                   : Blu-ray
Audio #1
ID                                       : 2
ID in the original source medium         : 4352 (0x1100)
Format                                   : MLP FBA
Format/Info                              : Meridian Lossless Packing FBA
Commercial name                          : Dolby TrueHD
Codec ID                                 : A_TRUEHD
Duration                                 : 1 h 40 min
Bit rate mode                            : Variable
Bit rate                                 : 2 744 kb/s
Maximum bit rate                         : 4 686 kb/s
Channel(s)                               : 6 channels
Channel layout                           : L R C LFE Ls Rs
Sampling rate                            : 96.0 kHz
Frame rate                               : 1 200.000 FPS (80 SPF)
Compression mode                         : Lossless
Stream size                              : 1.92 GiB (11%)
Language                                 : Chinese
Default                                  : Yes
Forced                                   : No
Original source medium                   : Blu-ray
Audio #2
ID                                       : 3
ID in the original source medium         : 4353 (0x1101)
Format                                   : MLP FBA
Format/Info                              : Meridian Lossless Packing FBA
Commercial name                          : Dolby TrueHD
Codec ID                                 : A_TRUEHD
Duration                                 : 1 h 40 min
Bit rate mode                            : Variable
Bit rate                                 : 2 755 kb/s
Maximum bit rate                         : 4 686 kb/s
Channel(s)                               : 6 channels
Channel layout                           : L R C LFE Ls Rs
Sampling rate                            : 96.0 kHz
Frame rate                               : 1 200.000 FPS (80 SPF)
Compression mode                         : Lossless
Stream size                              : 1.93 GiB (11%)
Language                                 : Chinese
Default                                  : Yes
Forced                                   : No
Original source medium                   : Blu-ray
Text #1
ID                                       : 4
ID in the original source medium         : 4608 (0x1200)
Format                                   : PGS
Muxing mode                              : zlib
Codec ID                                 : S_HDMV/PGS
Codec ID/Info                            : Picture based subtitle format used on BDs/HD-DVDs
Duration                                 : 1 h 36 min
Bit rate                                 : 34.4 kb/s
Frame rate                               : 0.379 FPS
Count of elements                        : 2202
Stream size                              : 23.8 MiB (0%)
Language                                 : Chinese
Default                                  : Yes
Forced                                   : No
Original source medium                   : Blu-ray
Text #2
ID                                       : 5
ID in the original source medium         : 4609 (0x1201)
Format                                   : PGS
Muxing mode                              : zlib
Codec ID                                 : S_HDMV/PGS
Codec ID/Info                            : Picture based subtitle format used on BDs/HD-DVDs
Duration                                 : 1 h 36 min
Bit rate                                 : 32.0 kb/s
Frame rate                               : 0.379 FPS
Count of elements                        : 2202
Stream size                              : 22.1 MiB (0%)
Language                                 : Chinese
Default                                  : Yes
Forced                                   : No
Original source medium                   : Blu-ray
Menu
00:00:00.000                             : en:Chapter 01
00:05:59.333                             : en:Chapter 02
00:16:03.083                             : en:Chapter 03
00:22:56.875                             : en:Chapter 04
00:30:40.458                             : en:Chapter 05
00:39:40.166                             : en:Chapter 06
00:48:40.041                             : en:Chapter 07
00:56:53.083                             : en:Chapter 08
01:12:33.083                             : en:Chapter 09
01:18:35.375                             : en:Chapter 10
01:28:06.083                             : en:Chapter 11
01:38:14.708                             : en:Chapter 12
部分资源为软字幕,移动端推荐播放器:MxPlayer,nPlayer,infuse ,其他播放器请自行尝试。
部分资源为软字幕,电脑端推荐播放器:PotPlayer,完美解码,KMPLAYER,其他播放器请自行尝试。
下载端推荐纯BT下载软件:qBittorrent,Bitcomet,uTorrent ,其他下载软件请自行尝试。不支持吸血迅雷。






~~~~~~~~~~~~~~~~~~~~~~~~~~~~~~~~~~~~~~~~~
[2011][大陆][喜剧][BD-1080P]神奇侠侣[国语配音/中文字幕].Mr.and.Mrs.Incredible.2011.BluRay.REMUX.1080p.AVC.TrueHD5.1.2Aud

【文件列表】:


Mr.and.Mrs.Incredible.2011.BluRay.REMUX.1080p.AVC.TrueHD5.1.2Audio-DreamHD.



【下载地址列表】:


游客
文件下载链接就在这里,在您回复评论成功后才能显示。
请勿回复无意义的灌水内容。


下拉页面到最底部回复或者【点击此处快捷回复】,回复后返回此处即可查看下载链接。
如您没注册本站会员,可以点击注册本站,注册后即可回复下载。



软字幕无法在截图上展现,HDR版本/杜比视界版本截图会出现颜色异常,请使用支持的设备播放!






[img][/img]






[img][/img]

(HDR版本/杜比视界版本,截图会出现颜色异常,请使用支持的设备播放)

小贴士:【影视自媒体解说文案请移步:夏至文案解说网 www.xiazhi.vip

上一篇:[2022][欧美][动作][BD-4K]真人快打传奇:雪盲[中文字幕].2022.UHD.BluRay.REMUX.2160p.HEVC.DTS-HD.MA5.1- 30.75GB
下一篇:[2022][其它][剧情][BD-1080P]哈里斯夫人闯巴黎[国语配音/中文字幕].Mrs.Harris.Goes.to.Paris.2022.BluRay.REMUX.1080p.AVC.DTS-HD.
回复

使用道具 举报

您需要登录后才可以回帖 登录 | 立即注册

本版积分规则

Archiver|手机版|小众纪录片影视聚合

GMT+8, 2024-7-25 03:26 , Processed in 0.160533 second(s), 12 queries , Gzip On, Redis On.

Powered by 小众纪录片影视聚合 @2010-2023

Copyright © 2010-2024, https://www.xzjlp.com/.


免责说明:本站所有内容链接、图文介绍等均来自于互联网网友分享,本站仅支持web页面展示和文字介绍,绝不提供在线观看和存储服务,也不参与录制、上传、压片。若本站收录内容无意侵犯贵司版权,请发邮件到【a885185#163.com】联系本站,我们将在第一时间删除侵权内容。谢谢!

快速回复 返回顶部 返回列表