小众纪录片影视聚合

 找回密码
 立即注册
查看: 10|回复: 0

[蓝光电影] [2022][欧美][其它][BD-1080P]黄石镇谋杀案[中文字幕].Murder.at.Yellowstone.City.2022.BluRay.REMUX.1080p.AVC.DTS-HD.MA5.1

[复制链接]

112万

主题

112万

帖子

112万

积分

超级版主

Rank: 8Rank: 8

积分
1128817
发表于 2024-7-9 21:40:35 | 显示全部楼层 |阅读模式


[2022][欧美][其它][BD-1080P]黄石镇谋杀案[中文字幕].Murder.at.Yellowstone.City.2022.BluRay.REMUX.1080p.AVC.DTS-HD.MA5.1

完整标题:黄石镇谋杀案[中文字幕].Murder.at.Yellowstone.City.2022.BluRay.REMUX.1080p.AVC.DTS-HD.MA5.1-DreamHD 32.77GB
◎标  题 黄石镇谋杀案
◎译  名 Murder at Emigrant Gulch / 移民谷谋杀案
◎片  名 Murder at Yellowstone City
◎年  代 2022
◎产  地 美国
◎类  别 西部
◎语  言 英语
◎上映日期 2022-06-24(美国)
◎IMDb评分 5.2/10 (1680人评价)
◎IMDb链接 https://www.imdb.com/title/tt11552344/
◎豆瓣评分 5.9/10 (590人评价)
◎豆瓣链接 https://movie.douban.com/subject/35459157/
◎片  长 126分钟
◎导  演 理查德·格雷 Richard Gray
◎演  员 托马斯·简 Thomas Jane
       安娜·坎普 Anna Camp
       扎克·麦克格温 Zach McGowan
       理查德·德莱福斯 Richard Dreyfuss
       加布里埃尔·伯恩 Gabriel Byrne
       艾玛·肯尼 Emma Kenney
       纳特·沃尔夫 Nat Wolff
       埃美·加西亚 Aimee Garcia
       斯考蒂·汤姆森 Scottie Thompson
       塔娜亚·比蒂 Tanaya Beatty
       艾赛亚·穆斯塔法 Isaiah Mustafa
       约翰·阿勒斯 John Ales
       莉亚·玛瑞·约翰逊 Lia Marie Johnson
       Brian Brown Brian Brown
       Joe Nichols Joe Nichols
◎简  介
    A former slave arrives in a desolate former boomtown now on the decline. Meanwhile, a local prospector discovers gold – and is murdered…##### MediaInfo ######
General
Unique ID                                : 150390827183654909746314819218630976747 (0x712438411AC431B1DB48907A7C7F24EB)
Complete name                            : Murder.at.Yellowstone.City.2022.BluRay.REMUX.1080p.AVC.DTS-HD.MA5.1-DreamHD.mkv
Duration                                 : 2 h 6 min
Overall bit rate mode                    : Variable
Overall bit rate                         : 37.0 Mb/s
Video
ID                                       : 1
Format                                   : AVC
Format/Info                              : Advanced Video Codec
Format profile                           : [email protected]
Format settings                          : CABAC / 4 Ref Frames
Format settings, CABAC                   : Yes
Format settings, Reference frames        : 4 frames
Codec ID                                 : V_MPEG4/ISO/AVC
Duration                                 : 2 h 6 min
Bit rate mode                            : Variable
Bit rate                                 : 33.4 Mb/s
Maximum bit rate                         : 36.0 Mb/s
Width                                    : 1 920 pixels
Height                                   : 1 080 pixels
Display aspect ratio                     : 16:9
Frame rate mode                          : Constant
Frame rate                               : 23.976 (23976/1000) FPS
Original frame rate                      : 23.976 (24000/1001) FPS
Color space                              : YUV
Chroma subsampling                       : 4:2:0
Bit depth                                : 8 bits
Scan type                                : Progressive
Bits/(Pixel*Frame)                       : 0.671
Stream size                              : 29.5 GiB (90%)
Default                                  : Yes
Forced                                   : No
Audio
ID                                       : 2
ID in the original source medium         : 4352 (0x1100)
Format                                   : DTS XLL
Format/Info                              : Digital Theater Systems
Commercial name                          : DTS-HD Master Audio
Codec ID                                 : A_DTS
Duration                                 : 2 h 6 min
Bit rate mode                            : Variable
Bit rate                                 : 3 606 kb/s
Channel(s)                               : 6 channels
Channel layout                           : C L R Ls Rs LFE
Sampling rate                            : 48.0 kHz
Frame rate                               : 93.750 FPS (512 SPF)
Bit depth                                : 24 bits
Compression mode                         : Lossless
Stream size                              : 3.19 GiB (10%)
Language                                 : English
Default                                  : Yes
Forced                                   : No
Original source medium                   : Blu-ray
Text #1
ID                                       : 3
ID in the original source medium         : 4608 (0x1200)
Format                                   : PGS
Muxing mode                              : zlib
Codec ID                                 : S_HDMV/PGS
Codec ID/Info                            : Picture based subtitle format used on BDs/HD-DVDs
Duration                                 : 2 h 6 min
Bit rate                                 : 17.9 kb/s
Frame rate                               : 0.399 FPS
Count of elements                        : 3030
Stream size                              : 16.2 MiB (0%)
Language                                 : English
Default                                  : Yes
Forced                                   : No
Original source medium                   : Blu-ray
Text #2
ID                                       : 4
ID in the original source medium         : 4611 (0x1203)
Format                                   : PGS
Muxing mode                              : zlib
Codec ID                                 : S_HDMV/PGS
Codec ID/Info                            : Picture based subtitle format used on BDs/HD-DVDs
Duration                                 : 2 h 0 min
Bit rate                                 : 15.2 kb/s
Frame rate                               : 0.318 FPS
Count of elements                        : 2304
Stream size                              : 13.1 MiB (0%)
Language                                 : Chinese
Default                                  : Yes
Forced                                   : No
Original source medium                   : Blu-ray
Text #3
ID                                       : 5
ID in the original source medium         : 4612 (0x1204)
Format                                   : PGS
Muxing mode                              : zlib
Codec ID                                 : S_HDMV/PGS
Codec ID/Info                            : Picture based subtitle format used on BDs/HD-DVDs
Duration                                 : 2 h 0 min
Bit rate                                 : 15.4 kb/s
Frame rate                               : 0.318 FPS
Count of elements                        : 2304
Stream size                              : 13.3 MiB (0%)
Language                                 : Chinese
Default                                  : Yes
Forced                                   : No
Original source medium                   : Blu-ray
Text #4
ID                                       : 6
ID in the original source medium         : 4613 (0x1205)
Format                                   : PGS
Muxing mode                              : zlib
Codec ID                                 : S_HDMV/PGS
Codec ID/Info                            : Picture based subtitle format used on BDs/HD-DVDs
Duration                                 : 2 h 0 min
Bit rate                                 : 31.0 kb/s
Frame rate                               : 0.318 FPS
Count of elements                        : 2304
Stream size                              : 26.8 MiB (0%)
Language                                 : Chinese
Default                                  : Yes
Forced                                   : No
Original source medium                   : Blu-ray
Text #5
ID                                       : 7
ID in the original source medium         : 4614 (0x1206)
Format                                   : PGS
Muxing mode                              : zlib
Codec ID                                 : S_HDMV/PGS
Codec ID/Info                            : Picture based subtitle format used on BDs/HD-DVDs
Duration                                 : 2 h 0 min
Bit rate                                 : 31.2 kb/s
Frame rate                               : 0.318 FPS
Count of elements                        : 2304
Stream size                              : 26.9 MiB (0%)
Language                                 : Chinese
Default                                  : Yes
Forced                                   : No
Original source medium                   : Blu-ray
Menu
00:00:00.000                             : en:Chapter 01
00:16:11.887                             : en:Chapter 02
00:32:58.685                             : en:Chapter 03
00:50:46.251                             : en:Chapter 04
01:09:23.117                             : en:Chapter 05
01:27:01.758                             : en:Chapter 06
01:43:27.576                             : en:Chapter 07
02:01:53.556                             : en:Chapter 08
部分资源为软字幕,移动端推荐播放器:MxPlayer,nPlayer,infuse ,其他播放器请自行尝试。
部分资源为软字幕,电脑端推荐播放器:PotPlayer,完美解码,KMPLAYER,其他播放器请自行尝试。
下载端推荐纯BT下载软件:qBittorrent,Bitcomet,uTorrent ,其他下载软件请自行尝试。不支持吸血迅雷。






~~~~~~~~~~~~~~~~~~~~~~~~~~~~~~~~~~~~~~~~~
[2022][欧美][其它][BD-1080P]黄石镇谋杀案[中文字幕].Murder.at.Yellowstone.City.2022.BluRay.REMUX.1080p.AVC.DTS-HD.MA5.1

【文件列表】:


Murder.at.Yellowstone.City.2022.BluRay.REMUX.1080p.AVC.DTS-HD.MA5.1-DreamHD.



【下载地址列表】:


游客
文件下载链接就在这里,在您回复评论成功后才能显示。
请勿回复无意义的灌水内容。


下拉页面到最底部回复或者【点击此处快捷回复】,回复后返回此处即可查看下载链接。
如您没注册本站会员,可以点击注册本站,注册后即可回复下载。



软字幕无法在截图上展现,HDR版本/杜比视界版本截图会出现颜色异常,请使用支持的设备播放!






[img][/img]






[img][/img]

(HDR版本/杜比视界版本,截图会出现颜色异常,请使用支持的设备播放)

小贴士:【影视自媒体解说文案请移步:夏至文案解说网 www.xiazhi.vip

上一篇:[2022][其它][剧情][BD-1080P]哈里斯夫人闯巴黎[国语配音/中文字幕].Mrs.Harris.Goes.to.Paris.2022.BluRay.REMUX.1080p.AVC.DTS-HD.
下一篇:[2021][其它][剧情][BD-1080P]海鳝[中文字幕].Murina.2021.BluRay.REMUX.1080p.AVC.DTS-HD.MA5.1- 14.85GB
回复

使用道具 举报

您需要登录后才可以回帖 登录 | 立即注册

本版积分规则

Archiver|手机版|小众纪录片影视聚合

GMT+8, 2024-7-17 00:25 , Processed in 0.256498 second(s), 11 queries , Gzip On, Redis On.

Powered by 小众纪录片影视聚合 @2010-2023

Copyright © 2010-2024, https://www.xzjlp.com/.


免责说明:本站所有内容链接、图文介绍等均来自于互联网网友分享,本站仅支持web页面展示和文字介绍,绝不提供在线观看和存储服务,也不参与录制、上传、压片。若本站收录内容无意侵犯贵司版权,请发邮件到【a885185#163.com】联系本站,我们将在第一时间删除侵权内容。谢谢!

快速回复 返回顶部 返回列表