小众纪录片影视聚合

 找回密码
 立即注册
查看: 13|回复: 0

[蓝光电影] [2021][其它][剧情][BD-1080P]海鳝[中文字幕].Murina.2021.BluRay.REMUX.1080p.AVC.DTS-HD.MA5.1- 14.85GB

[复制链接]

113万

主题

113万

帖子

113万

积分

超级版主

Rank: 8Rank: 8

积分
1134453
发表于 2024-7-9 21:40:38 | 显示全部楼层 |阅读模式


[2021][其它][剧情][BD-1080P]海鳝[中文字幕].Murina.2021.BluRay.REMUX.1080p.AVC.DTS-HD.MA5.1- 14.85GB

完整标题:海鳝[中文字幕].Murina.2021.BluRay.REMUX.1080p.AVC.DTS-HD.MA5.1-DreamHD 14.85GB
◎标  题 海鳝
◎译  名 湛蓝青春海(台)
◎片  名 Murina
◎年  代 2021
◎产  地 克罗地亚 / 巴西 / 美国 / 斯洛文尼亚
◎类  别 剧情
◎语  言 克罗地亚语 / 英语 / 西班牙语
◎上映日期 2021-07-10(戛纳电影节) / 2021-08-26(克罗地亚)
◎IMDb评分 6.8/10 (2971人评价)
◎IMDb链接 https://www.imdb.com/title/tt8434110/
◎豆瓣评分 6.3/10 (668人评价)
◎豆瓣链接 https://movie.douban.com/subject/35478382/
◎片  长 96分钟
◎导  演 安东尼塔·阿拉马特·库西扬诺维奇 Antoneta Alamat Kusijanović
◎编  剧 安东尼塔·阿拉马特·库西扬诺维奇 Antoneta Alamat Kusijanović
       弗兰克·格拉齐亚诺 Frank Graziano
◎演  员 格拉西娅·菲利波维奇 Gracija Filipović
       达妮卡· 库尔西奇 Danica Ćurčić
       莱昂·鲁塞夫 Leon Lučev
       克利夫·柯蒂斯 Cliff Curtis
       乔纳斯·斯莫德斯 Jonas Smulders
◎简  介
    A teenage girl who decides to replace her controlling father with his wealthy foreign friend during a weekend trip to the Adriatic Sea.##### MediaInfo ######
General
Unique ID                                : 157887395465324163742369801531692778889 (0x76C8019B5B30F73B4B0F5E847DA98589)
Complete name                            : Murina.2021.BluRay.REMUX.1080p.AVC.DTS-HD.MA5.1-DreamHD.mkv
Duration                                 : 1 h 35 min
Overall bit rate mode                    : Variable
Overall bit rate                         : 22.2 Mb/s
Video
ID                                       : 1
ID in the original source medium         : 4113 (0x1011)
Format                                   : AVC
Format/Info                              : Advanced Video Codec
Format profile                           : [email protected]
Format settings                          : CABAC / 4 Ref Frames
Format settings, CABAC                   : Yes
Format settings, Reference frames        : 4 frames
Codec ID                                 : V_MPEG4/ISO/AVC
Duration                                 : 1 h 35 min
Bit rate mode                            : Variable
Bit rate                                 : 18.7 Mb/s
Maximum bit rate                         : 27.0 Mb/s
Width                                    : 1 920 pixels
Height                                   : 1 080 pixels
Display aspect ratio                     : 16:9
Frame rate mode                          : Constant
Frame rate                               : 24.000 FPS
Color space                              : YUV
Chroma subsampling                       : 4:2:0
Bit depth                                : 8 bits
Scan type                                : Progressive
Bits/(Pixel*Frame)                       : 0.376
Stream size                              : 12.5 GiB (84%)
Default                                  : Yes
Forced                                   : No
Original source medium                   : Blu-ray
Audio
ID                                       : 2
ID in the original source medium         : 4352 (0x1100)
Format                                   : DTS XLL
Format/Info                              : Digital Theater Systems
Commercial name                          : DTS-HD Master Audio
Codec ID                                 : A_DTS
Duration                                 : 1 h 35 min
Bit rate mode                            : Variable
Bit rate                                 : 3 401 kb/s
Channel(s)                               : 6 channels
Channel layout                           : C L R Ls Rs LFE
Sampling rate                            : 48.0 kHz
Frame rate                               : 93.750 FPS (512 SPF)
Bit depth                                : 24 bits
Compression mode                         : Lossless
Stream size                              : 2.28 GiB (15%)
Language                                 : Croatian
Default                                  : Yes
Forced                                   : No
Original source medium                   : Blu-ray
Text #1
ID                                       : 3
ID in the original source medium         : 4609 (0x1201)
Format                                   : PGS
Muxing mode                              : zlib
Codec ID                                 : S_HDMV/PGS
Codec ID/Info                            : Picture based subtitle format used on BDs/HD-DVDs
Duration                                 : 1 h 35 min
Bit rate                                 : 16.7 kb/s
Frame rate                               : 0.330 FPS
Count of elements                        : 1884
Stream size                              : 11.3 MiB (0%)
Language                                 : English
Default                                  : Yes
Forced                                   : No
Original source medium                   : Blu-ray
Text #2
ID                                       : 4
ID in the original source medium         : 4610 (0x1202)
Format                                   : PGS
Muxing mode                              : zlib
Codec ID                                 : S_HDMV/PGS
Codec ID/Info                            : Picture based subtitle format used on BDs/HD-DVDs
Duration                                 : 1 h 23 min
Bit rate                                 : 13.4 kb/s
Frame rate                               : 0.280 FPS
Count of elements                        : 1396
Stream size                              : 7.95 MiB (0%)
Language                                 : Chinese
Default                                  : Yes
Forced                                   : No
Original source medium                   : Blu-ray
Text #3
ID                                       : 5
ID in the original source medium         : 4611 (0x1203)
Format                                   : PGS
Muxing mode                              : zlib
Codec ID                                 : S_HDMV/PGS
Codec ID/Info                            : Picture based subtitle format used on BDs/HD-DVDs
Duration                                 : 1 h 23 min
Bit rate                                 : 13.6 kb/s
Frame rate                               : 0.280 FPS
Count of elements                        : 1396
Stream size                              : 8.10 MiB (0%)
Language                                 : Chinese
Default                                  : Yes
Forced                                   : No
Original source medium                   : Blu-ray
Text #4
ID                                       : 6
ID in the original source medium         : 4612 (0x1204)
Format                                   : PGS
Muxing mode                              : zlib
Codec ID                                 : S_HDMV/PGS
Codec ID/Info                            : Picture based subtitle format used on BDs/HD-DVDs
Duration                                 : 1 h 23 min
Bit rate                                 : 23.3 kb/s
Frame rate                               : 0.280 FPS
Count of elements                        : 1396
Stream size                              : 13.8 MiB (0%)
Language                                 : Chinese
Default                                  : Yes
Forced                                   : No
Original source medium                   : Blu-ray
Text #5
ID                                       : 7
ID in the original source medium         : 4613 (0x1205)
Format                                   : PGS
Muxing mode                              : zlib
Codec ID                                 : S_HDMV/PGS
Codec ID/Info                            : Picture based subtitle format used on BDs/HD-DVDs
Duration                                 : 1 h 23 min
Bit rate                                 : 23.5 kb/s
Frame rate                               : 0.280 FPS
Count of elements                        : 1396
Stream size                              : 14.0 MiB (0%)
Language                                 : Chinese
Default                                  : Yes
Forced                                   : No
Original source medium                   : Blu-ray
Menu
00:00:00.000                             : en:Chapter 01
00:08:26.291                             : en:Chapter 02
00:20:46.500                             : en:Chapter 03
00:30:50.125                             : en:Chapter 04
00:39:38.666                             : en:Chapter 05
00:48:21.833                             : en:Chapter 06
00:56:48.583                             : en:Chapter 07
01:06:36.083                             : en:Chapter 08
01:14:42.708                             : en:Chapter 09
01:23:56.875                             : en:Chapter 10
部分资源为软字幕,移动端推荐播放器:MxPlayer,nPlayer,infuse ,其他播放器请自行尝试。
部分资源为软字幕,电脑端推荐播放器:PotPlayer,完美解码,KMPLAYER,其他播放器请自行尝试。
下载端推荐纯BT下载软件:qBittorrent,Bitcomet,uTorrent ,其他下载软件请自行尝试。不支持吸血迅雷。






~~~~~~~~~~~~~~~~~~~~~~~~~~~~~~~~~~~~~~~~~
[2021][其它][剧情][BD-1080P]海鳝[中文字幕].Murina.2021.BluRay.REMUX.1080p.AVC.DTS-HD.MA5.1- 14.85GB

【文件列表】:


Murina.2021.BluRay.REMUX.1080p.AVC.DTS-HD.MA5.1-DreamHD.



【下载地址列表】:


游客
文件下载链接就在这里,在您回复评论成功后才能显示。
请勿回复无意义的灌水内容。


下拉页面到最底部回复或者【点击此处快捷回复】,回复后返回此处即可查看下载链接。
如您没注册本站会员,可以点击注册本站,注册后即可回复下载。



软字幕无法在截图上展现,HDR版本/杜比视界版本截图会出现颜色异常,请使用支持的设备播放!






[img][/img]






[img][/img]

(HDR版本/杜比视界版本,截图会出现颜色异常,请使用支持的设备播放)

小贴士:【影视自媒体解说文案请移步:夏至文案解说网 www.xiazhi.vip

上一篇:[2022][欧美][其它][BD-1080P]黄石镇谋杀案[中文字幕].Murder.at.Yellowstone.City.2022.BluRay.REMUX.1080p.AVC.DTS-HD.MA5.1
下一篇:[2019][欧美][剧情][BD-1080P]音乐,战争与爱[中文字幕].Music,.War.and.Love.2019.BluRay.REMUX.1080p.AVC.DTS-HD.MA5.1-Dream
回复

使用道具 举报

您需要登录后才可以回帖 登录 | 立即注册

本版积分规则

Archiver|手机版|小众纪录片影视聚合

GMT+8, 2024-7-22 05:53 , Processed in 0.105733 second(s), 13 queries , Gzip On, Redis On.

Powered by 小众纪录片影视聚合 @2010-2023

Copyright © 2010-2024, https://www.xzjlp.com/.


免责说明:本站所有内容链接、图文介绍等均来自于互联网网友分享,本站仅支持web页面展示和文字介绍,绝不提供在线观看和存储服务,也不参与录制、上传、压片。若本站收录内容无意侵犯贵司版权,请发邮件到【a885185#163.com】联系本站,我们将在第一时间删除侵权内容。谢谢!

快速回复 返回顶部 返回列表