小众纪录片影视聚合

 找回密码
 立即注册
查看: 3|回复: 0

[蓝光电影] [更 早][欧美][喜剧][BD-1080P]龙兄鼠弟[简繁英字幕].Twins.1988.1080p.BluRay.Remux.AVC.DTS-HD.MA.2.0- 23.18GB

[复制链接]

116万

主题

116万

帖子

116万

积分

超级版主

Rank: 8Rank: 8

积分
1167997
发表于 2024-7-9 21:44:27 | 显示全部楼层 |阅读模式


[更 早][欧美][喜剧][BD-1080P]龙兄鼠弟[简繁英字幕].Twins.1988.1080p.BluRay.Remux.AVC.DTS-HD.MA.2.0- 23.18GB

完整标题:龙兄鼠弟[简繁英字幕].Twins.1988.1080p.BluRay.Remux.AVC.DTS-HD.MA.2.0-SONYHD 23.18GB
◎标  题 龙兄鼠弟
◎译  名 孪生兄弟
◎片  名 Twins
◎年  代 1988
◎产  地 美国
◎类  别 喜剧
◎语  言 英语
◎上映日期 1988-12-09(美国)
◎IMDb评分 6.1/10 (129297人评价)
◎IMDb链接 https://www.imdb.com/title/tt0096320/
◎豆瓣评分 6.8/10 (4790人评价)
◎豆瓣链接 https://movie.douban.com/subject/1297889/
◎片  长 105 分钟
◎导  演 伊万·雷特曼 Ivan Reitman
◎编  剧 威廉姆·戴维斯 William Davies
       威廉·奥斯本 William Osborne
       蒂莫西·哈里斯 Timothy Harris
       赫舍尔·魏因格罗德 Herschel Weingrod
◎演  员 阿诺·施瓦辛格 Arnold Schwarzenegger
       丹尼·德维托 Danny DeVito
       凯利·普雷斯顿 Kelly Preston
       科洛·韦伯 Chloe Webb
       邦妮·芭利特 Bonnie Bartlett
       特雷·威尔逊 Trey Wilson
       马绍尔·贝尔 Marshall Bell
       大卫·卡罗素 David Caruso
       休·欧布莱恩 Hugh O'Brian
       内赫米亚·佩尔索夫 Nehemiah Persoff
       莫里·柴金 Maury Chaykin
       托尼·杰 Tony Jay
       凯瑟琳·瑞特曼 Catherine Reitman
       田川洋行 Cary-Hiroyuki Tagawa
       达斯汀·艾米 Dustin Amy
       贾森·雷特曼 Jason Reitman
       Linda Porter Linda Porter
       Billy D. Lucas Billy D. Lucas
       Tom Platz Tom Platz
       Elizabeth Kaitan Elizabeth Kaitan
       史蒂夫·里维斯 Steve Reevis
       杰夫·贝克 Jeff Beck
       理查德·波特诺 Richard Portnow
       乔伊·麦迪贾克 Joe Medjuck
       史文-欧尔·托尔森 Sven-Ole Thorsen
       海瑟·格拉汉姆 Heather Graham
       Ty Granderson Jones Ty Granderson Jones
       Nicolette Larson Nicolette Larson
       S.A. Griffin S.A. Griffin
       Terry Bozzio Terry Bozzio
       弗兰西斯·贝 Frances Bay
       John Michael Bolger John Michael Bolger
       罗伯特·哈珀 Robert Harper
◎简  介
    多年前科学家进行了一项创造完美人类的饰演,没想到实验过程中的细胞分裂不均匀导致了这个实验只成功了一半,另一半则完全失败。科学家创造出来的这对双胞胎兄弟一个是完美人类的典型――德智体美全面发展的高大的朱利斯(阿诺•施瓦辛格 Arnold Schwarzenegger 饰);另一个则是人类所有缺点的集合体――小矮个文森(丹尼•德维托 Danny DeVito 饰)。兄弟两一出世就被分离,朱利斯被科学家送到南海的一个小岛上抚养长大,而弟弟则在孤儿院度过了他的童年。                                    直到兄弟两已过不惑之年,他们才知道了对方的存在。朱利斯与未曾谋面的兄弟文森重逢后,两兄弟决定踏上寻找亲生母亲之路。但是这时,一场意外给他们惹来了杀身之祸。##### MediaInfo ######
General
Unique ID                                : 201806417866082764388612731959215876622 (0x97D28097A2CE9BF05A23E10B2EA76A0E)
Complete name                            : Twins.1988.1080p.BluRay.Remux.AVC.DTS-HD.MA.2.0-SONYHD.mkv
Duration                                 : 1 h 46 min
Overall bit rate mode                    : Variable
Overall bit rate                         : 31.1 Mb/s
Video
ID                                       : 1
ID in the original source medium         : 4113 (0x1011)
Format                                   : AVC
Format/Info                              : Advanced Video Codec
Format profile                           : [email protected]
Format settings                          : CABAC / 4 Ref Frames
Format settings, CABAC                   : Yes
Format settings, Reference frames        : 4 frames
Format settings, GOP                     : M=3, N=12
Codec ID                                 : V_MPEG4/ISO/AVC
Duration                                 : 1 h 46 min
Bit rate mode                            : Constant
Bit rate                                 : 30.0 Mb/s
Width                                    : 1 920 pixels
Height                                   : 1 080 pixels
Display aspect ratio                     : 16:9
Frame rate mode                          : Constant
Frame rate                               : 23.976 (24000/1001) FPS
Color space                              : YUV
Chroma subsampling                       : 4:2:0
Bit depth                                : 8 bits
Scan type                                : Progressive
Bits/(Pixel*Frame)                       : 0.603
Stream size                              : 21.9 GiB (95%)
Default                                  : Yes
Forced                                   : No
Original source medium                   : Blu-ray
Audio
ID                                       : 2
ID in the original source medium         : 4352 (0x1100)
Format                                   : DTS XLL
Format/Info                              : Digital Theater Systems
Commercial name                          : DTS-HD Master Audio
Codec ID                                 : A_DTS
Duration                                 : 1 h 46 min
Bit rate mode                            : Variable
Bit rate                                 : 1 635 kb/s
Channel(s)                               : 2 channels
Channel layout                           : L R
Sampling rate                            : 48.0 kHz
Frame rate                               : 93.750 FPS (512 SPF)
Bit depth                                : 24 bits
Compression mode                         : Lossless
Stream size                              : 1.22 GiB (5%)
Title                                    : English
Language                                 : English
Default                                  : Yes
Forced                                   : No
Original source medium                   : Blu-ray
Text #1
ID                                       : 3
ID in the original source medium         : 4609 (0x1201)
Format                                   : PGS
Muxing mode                              : zlib
Codec ID                                 : S_HDMV/PGS
Codec ID/Info                            : Picture based subtitle format used on BDs/HD-DVDs
Duration                                 : 1 h 41 min
Bit rate                                 : 28.4 kb/s
Frame rate                               : 0.443 FPS
Count of elements                        : 2708
Stream size                              : 20.7 MiB (0%)
Title                                    : chs
Language                                 : Chinese
Default                                  : Yes
Forced                                   : No
Original source medium                   : Blu-ray
Text #2
ID                                       : 4
ID in the original source medium         : 4610 (0x1202)
Format                                   : PGS
Muxing mode                              : zlib
Codec ID                                 : S_HDMV/PGS
Codec ID/Info                            : Picture based subtitle format used on BDs/HD-DVDs
Duration                                 : 1 h 41 min
Bit rate                                 : 28.6 kb/s
Frame rate                               : 0.443 FPS
Count of elements                        : 2708
Stream size                              : 20.8 MiB (0%)
Title                                    : cht
Language                                 : Chinese
Default                                  : No
Forced                                   : No
Original source medium                   : Blu-ray
Text #3
ID                                       : 5
ID in the original source medium         : 4608 (0x1200)
Format                                   : PGS
Muxing mode                              : zlib
Codec ID                                 : S_HDMV/PGS
Codec ID/Info                            : Picture based subtitle format used on BDs/HD-DVDs
Duration                                 : 1 h 44 min
Bit rate                                 : 43.0 kb/s
Frame rate                               : 0.440 FPS
Count of elements                        : 2763
Stream size                              : 32.2 MiB (0%)
Title                                    : eng
Language                                 : English
Default                                  : No
Forced                                   : No
Original source medium                   : Blu-ray
Menu
00:00:00.000                             : en:Chapter 01
00:08:00.229                             : en:Chapter 02
00:18:33.862                             : en:Chapter 03
00:28:06.393                             : en:Chapter 04
00:39:33.871                             : en:Chapter 05
00:49:39.059                             : en:Chapter 06
00:57:13.930                             : en:Chapter 07
01:05:23.002                             : en:Chapter 08
01:14:28.797                             : en:Chapter 09
01:22:05.211                             : en:Chapter 10
01:29:53.888                             : en:Chapter 11
01:36:47.051                             : en:Chapter 12
部分资源为软字幕,移动端推荐播放器:MxPlayer,nPlayer,infuse ,其他播放器请自行尝试。
部分资源为软字幕,电脑端推荐播放器:PotPlayer,完美解码,KMPLAYER,其他播放器请自行尝试。
下载端推荐纯BT下载软件:qBittorrent,Bitcomet,uTorrent ,其他下载软件请自行尝试。不支持吸血迅雷。






~~~~~~~~~~~~~~~~~~~~~~~~~~~~~~~~~~~~~~~~~
[更 早][欧美][喜剧][BD-1080P]龙兄鼠弟[简繁英字幕].Twins.1988.1080p.BluRay.Remux.AVC.DTS-HD.MA.2.0- 23.18GB

【文件列表】:


Twins.1988.1080p.BluRay.Remux.AVC.DTS-HD.MA.2.0-SONYHD.



【下载地址列表】:


游客
文件下载链接就在这里,在您回复评论成功后才能显示。
请勿回复无意义的灌水内容。


下拉页面到最底部回复或者【点击此处快捷回复】,回复后返回此处即可查看下载链接。
如您没注册本站会员,可以点击注册本站,注册后即可回复下载。



软字幕无法在截图上展现,HDR版本/杜比视界版本截图会出现颜色异常,请使用支持的设备播放!






[img][/img]






[img][/img]

(HDR版本/杜比视界版本,截图会出现颜色异常,请使用支持的设备播放)

小贴士:【影视自媒体解说文案请移步:夏至文案解说网 www.xiazhi.vip

上一篇:[更 早][欧美][剧情][BD-1080P]财色惊魂[简繁英字幕].The.Killers.1964.CC.1080p.BluRay.Remux.AVC.FLAC.1.0- 14.71GB
下一篇:[2023][大陆][剧情][BD-1080P]坚如磐石[国语配音/中文字幕].Under.the.Light.2023.1080p.BluRay.Remux.AVC.TrueHD.5.1- 32
回复

使用道具 举报

您需要登录后才可以回帖 登录 | 立即注册

本版积分规则

Archiver|手机版|小众纪录片影视聚合

GMT+8, 2024-7-25 02:00 , Processed in 0.091121 second(s), 12 queries , Gzip On, Redis On.

Powered by 小众纪录片影视聚合 @2010-2023

Copyright © 2010-2024, https://www.xzjlp.com/.


免责说明:本站所有内容链接、图文介绍等均来自于互联网网友分享,本站仅支持web页面展示和文字介绍,绝不提供在线观看和存储服务,也不参与录制、上传、压片。若本站收录内容无意侵犯贵司版权,请发邮件到【a885185#163.com】联系本站,我们将在第一时间删除侵权内容。谢谢!

快速回复 返回顶部 返回列表