小众纪录片影视聚合

 找回密码
 立即注册
查看: 11|回复: 0

[蓝光电影] [2023][大陆][剧情][BD-1080P]坚如磐石[国语配音/中文字幕].Under.the.Light.2023.1080p.BluRay.Remux.AVC.TrueHD.5.1- 32

[复制链接]

112万

主题

112万

帖子

112万

积分

超级版主

Rank: 8Rank: 8

积分
1128817
发表于 7 天前 | 显示全部楼层 |阅读模式


[2023][大陆][剧情][BD-1080P]坚如磐石[国语配音/中文字幕].Under.the.Light.2023.1080p.BluRay.Remux.AVC.TrueHD.5.1- 32

完整标题:坚如磐石[国语配音/中文字幕].Under.the.Light.2023.1080p.BluRay.Remux.AVC.TrueHD.5.1-SONYHD 32.06GB
◎标  题 坚如磐石
◎译  名 黑洞 / Under the Light
◎年  代 2023
◎产  地 中国大陆
◎类  别 剧情 / 动作 / 犯罪
◎语  言 汉语普通话
◎上映日期 2023-09-28(中国大陆)
◎IMDb评分 6.1/10 (450人评价)
◎IMDb链接 https://www.imdb.com/title/tt11448070/
◎豆瓣评分 6.2/10 (273724人评价)
◎豆瓣链接 https://movie.douban.com/subject/33447633/
◎片  长 127分钟
◎导  演 张艺谋 Yimou Zhang
◎编  剧 陈宇 Yu Chen
◎演  员 雷佳音 Jiayin Lei
       张国立 Guoli Zhang
       于和伟 Hewei Yu
       周冬雨 Dongyu Zhou
       孙艺洲 Yizhou Sun
       李乃文 Naiwen Li
       许亚军 Yajun Xu
       田雨 Yu Tian
       何政军 Zhengjun He
       徐子力 Zili Xu
       林博洋 Boyang Lin
       陈童 Tong Chen
       陈道明 Daoming Chen
       陈冲 Joan Chen
       王迅 Xun Wang
       赵亮 Liang Zhao
       焦刚 Gang Jiao
       楚布花羯 ChoBu HuaJe
◎简  介
    西南重镇金江市,一起公交汽车劫持爆炸案撬动了这座城市盘根错节的利益网。金五集团董事长黎志田(于和伟 饰)横跳政商两界,飞扬跋扈。而他的背后,金江市副市长郑刚(张国立 饰)则与之勾搭不清,相互牵制。郑刚的养子苏见明(雷佳音 饰)现供职于市公安局技术科,公交爆炸案的种种疑点令他察觉背后主使另有他人,于是执意追查幕后真相。另一方面,中央派来的调查组进驻金江市,其毫不妥协的气势令郑刚如坐针毡,为此不惜铤而走险,丢卒保车。然而以利益结成的同盟,不仅脆弱,更灭不了鱼死网破。                                    钱外有钱,官上有官,无休无止的利益黑洞,裹挟覆灭了多少贪婪之徒……##### MediaInfo ######
General
Unique ID                                : 35030091937599148377077805184901452969 (0x1A5A8CE092EC23C0C230CBEF1D8014A9)
Complete name                            : Under.the.Light.2023.1080p.BluRay.Remux.AVC.TrueHD.5.1-SONYHD.mkv
Duration                                 : 2 h 7 min
Overall bit rate mode                    : Variable
Overall bit rate                         : 35.9 Mb/s
Video
ID                                       : 1
ID in the original source medium         : 4113 (0x1011)
Format                                   : AVC
Format/Info                              : Advanced Video Codec
Format profile                           : [email protected]
Format settings                          : CABAC / 4 Ref Frames
Format settings, CABAC                   : Yes
Format settings, Reference frames        : 4 frames
Codec ID                                 : V_MPEG4/ISO/AVC
Duration                                 : 2 h 7 min
Bit rate mode                            : Constant
Bit rate                                 : 34.0 Mb/s
Width                                    : 1 920 pixels
Height                                   : 1 080 pixels
Display aspect ratio                     : 16:9
Frame rate mode                          : Constant
Frame rate                               : 24.000 FPS
Standard                                 : NTSC
Color space                              : YUV
Chroma subsampling                       : 4:2:0
Bit depth                                : 8 bits
Scan type                                : Progressive
Bits/(Pixel*Frame)                       : 0.683
Stream size                              : 29.8 GiB (93%)
Default                                  : Yes
Forced                                   : No
Color range                              : Limited
Color primaries                          : BT.709
Transfer characteristics                 : BT.709
Matrix coefficients                      : BT.709
Original source medium                   : Blu-ray
Audio
ID                                       : 2
ID in the original source medium         : 4352 (0x1100)
Format                                   : MLP FBA
Format/Info                              : Meridian Lossless Packing FBA
Commercial name                          : Dolby TrueHD
Codec ID                                 : A_TRUEHD
Duration                                 : 2 h 7 min
Bit rate mode                            : Variable
Bit rate                                 : 2 398 kb/s
Maximum bit rate                         : 4 470 kb/s
Channel(s)                               : 6 channels
Channel layout                           : L R C LFE Ls Rs
Sampling rate                            : 96.0 kHz
Frame rate                               : 1 200.000 FPS (80 SPF)
Compression mode                         : Lossless
Stream size                              : 2.14 GiB (7%)
Title                                    : Mandarin
Language                                 : Chinese
Default                                  : Yes
Forced                                   : No
Original source medium                   : Blu-ray
Text #1
ID                                       : 3
ID in the original source medium         : 4608 (0x1200)
Format                                   : PGS
Muxing mode                              : zlib
Codec ID                                 : S_HDMV/PGS
Codec ID/Info                            : Picture based subtitle format used on BDs/HD-DVDs
Duration                                 : 2 h 3 min
Bit rate                                 : 32.6 kb/s
Frame rate                               : 0.518 FPS
Count of elements                        : 3831
Stream size                              : 28.7 MiB (0%)
Title                                    : cht
Language                                 : Chinese
Default                                  : Yes
Forced                                   : No
Original source medium                   : Blu-ray
Text #2
ID                                       : 4
ID in the original source medium         : 4609 (0x1201)
Format                                   : PGS
Muxing mode                              : zlib
Codec ID                                 : S_HDMV/PGS
Codec ID/Info                            : Picture based subtitle format used on BDs/HD-DVDs
Duration                                 : 2 h 3 min
Bit rate                                 : 40.1 kb/s
Frame rate                               : 0.518 FPS
Count of elements                        : 3831
Stream size                              : 35.3 MiB (0%)
Title                                    : eng
Language                                 : English
Default                                  : No
Forced                                   : No
Original source medium                   : Blu-ray
Menu
00:00:00.000                             : en:Chapter 01
00:08:58.375                             : en:Chapter 02
00:20:13.291                             : en:Chapter 03
00:30:35.000                             : en:Chapter 04
00:42:30.041                             : en:Chapter 05
00:54:47.000                             : en:Chapter 06
01:01:06.708                             : en:Chapter 07
01:17:47.875                             : en:Chapter 08
01:24:26.666                             : en:Chapter 09
01:34:26.833                             : en:Chapter 10
01:46:33.916                             : en:Chapter 11
01:57:20.083                             : en:Chapter 12
部分资源为软字幕,移动端推荐播放器:MxPlayer,nPlayer,infuse ,其他播放器请自行尝试。
部分资源为软字幕,电脑端推荐播放器:PotPlayer,完美解码,KMPLAYER,其他播放器请自行尝试。
下载端推荐纯BT下载软件:qBittorrent,Bitcomet,uTorrent ,其他下载软件请自行尝试。不支持吸血迅雷。






~~~~~~~~~~~~~~~~~~~~~~~~~~~~~~~~~~~~~~~~~
[2023][大陆][剧情][BD-1080P]坚如磐石[国语配音/中文字幕].Under.the.Light.2023.1080p.BluRay.Remux.AVC.TrueHD.5.1- 32

【文件列表】:


Under.the.Light.2023.1080p.BluRay.Remux.AVC.TrueHD.5.1-SONYHD.



【下载地址列表】:


游客
文件下载链接就在这里,在您回复评论成功后才能显示。
请勿回复无意义的灌水内容。


下拉页面到最底部回复或者【点击此处快捷回复】,回复后返回此处即可查看下载链接。
如您没注册本站会员,可以点击注册本站,注册后即可回复下载。



软字幕无法在截图上展现,HDR版本/杜比视界版本截图会出现颜色异常,请使用支持的设备播放!






[img][/img]






[img][/img]

(HDR版本/杜比视界版本,截图会出现颜色异常,请使用支持的设备播放)

小贴士:【影视自媒体解说文案请移步:夏至文案解说网 www.xiazhi.vip

上一篇:[更 早][欧美][喜剧][BD-1080P]龙兄鼠弟[简繁英字幕].Twins.1988.1080p.BluRay.Remux.AVC.DTS-HD.MA.2.0- 23.18GB
下一篇:[2013][其它][剧情][WEB-1080P]亨利[中文字幕].Henri.2013.1080p.WEB-DL.H265.AAC- 2.39GB
回复

使用道具 举报

您需要登录后才可以回帖 登录 | 立即注册

本版积分规则

Archiver|手机版|小众纪录片影视聚合

GMT+8, 2024-7-16 23:45 , Processed in 0.082545 second(s), 11 queries , Gzip On, Redis On.

Powered by 小众纪录片影视聚合 @2010-2023

Copyright © 2010-2024, https://www.xzjlp.com/.


免责说明:本站所有内容链接、图文介绍等均来自于互联网网友分享,本站仅支持web页面展示和文字介绍,绝不提供在线观看和存储服务,也不参与录制、上传、压片。若本站收录内容无意侵犯贵司版权,请发邮件到【a885185#163.com】联系本站,我们将在第一时间删除侵权内容。谢谢!

快速回复 返回顶部 返回列表