小众纪录片影视聚合

 找回密码
 立即注册
查看: 10|回复: 0

[蓝光电影] [2022][欧美][其它][WEB-1080P]玛丽莲·梦露之谜:首次现世的录音[简繁英字幕].2022.1080p.NF.WEB-DL.H264.DDP5.1- 4.65GB

[复制链接]

113万

主题

113万

帖子

113万

积分

超级版主

Rank: 8Rank: 8

积分
1134020
发表于 2024-7-9 21:46:00 | 显示全部楼层 |阅读模式


[2022][欧美][其它][WEB-1080P]玛丽莲·梦露之谜:首次现世的录音[简繁英字幕].2022.1080p.NF.WEB-DL.H264.DDP5.1- 4.65GB

完整标题:玛丽莲·梦露之谜:首次现世的录音[简繁英字幕].2022.1080p.NF.WEB-DL.H264.DDP5.1-SONYHD 4.65GB
◎标  题 玛丽莲·梦露之谜:首次现世的录音
◎译  名 玛丽莲·梦露:最后的录音 / 梦露之谜:绝密录音带
◎片  名 The Mystery of Marilyn Monroe: The Unheard Tapes
◎年  代 2022
◎产  地 美国
◎类  别 纪录片
◎语  言 英语
◎上映日期 2022-04-27(美国)
◎IMDb评分 6.2/10 (5121人评价)
◎IMDb链接 https://www.imdb.com/title/tt19034332/
◎豆瓣评分 6.4/10 (1017人评价)
◎豆瓣链接 https://movie.douban.com/subject/35812184/
◎片  长 101分钟
◎导  演 艾玛·库珀 Emma Cooper
◎演  员 玛丽莲·梦露 Marilyn Monroe
       约翰·休斯顿 John Huston
◎简  介
    好莱坞巨星玛丽莲·梦露不幸逝世后,衍生出的阴谋论和谣言数十年来从未停歇,众人不再聚焦于她的才华与才智。本片收录梦露至亲的访谈,透过从未曝光的录音拼凑出她临终前几星期、几天、甚至几小时的时光,描述她光芒四射却又耐人寻味的一生,并以新颖的视角检视她的宿命之夜。##### MediaInfo ######
General
Complete name                            : The.Mystery.of.Marilyn.Monroe.The.Unheard.Tapes.2022.1080p.NF.WEB-DL.H264.DDP5.1-SONYHD.mp4
Duration                                 : 1 h 41 min
Overall bit rate mode                    : Variable
Overall bit rate                         : 6 540 kb/s
Video
ID                                       : 1
Format                                   : AVC
Format/Info                              : Advanced Video Codec
Format profile                           : High@L4
Format settings                          : CABAC / 4 Ref Frames
Format settings, CABAC                   : Yes
Format settings, Reference frames        : 4 frames
Codec ID                                 : avc1
Codec ID/Info                            : Advanced Video Coding
Duration                                 : 1 h 41 min
Bit rate mode                            : Variable
Bit rate                                 : 5 892 kb/s
Maximum bit rate                         : 20.0 Mb/s
Width                                    : 1 920 pixels
Height                                   : 1 080 pixels
Display aspect ratio                     : 16:9
Frame rate mode                          : Constant
Frame rate                               : 25.000 FPS
Color space                              : YUV
Chroma subsampling                       : 4:2:0
Bit depth                                : 8 bits
Scan type                                : Progressive
Bits/(Pixel*Frame)                       : 0.114
Stream size                              : 4.18 GiB (90%)
Title                                    : 264:fmt=264:moovts=-1:fps=25:deps:[email protected]
Writing library                          : x264 core 148 r2727 7d026e8
Encoding settings                        : cabac=1 / ref=4 / deblock=1:0:0 / analyse=0x3:0x111 / me=umh / subme=10 / psy=1 / psy_rd=1.00:0.00 / mixed_ref=1 / me_range=120 / chroma_me=1 / trellis=2 / 8x8dct=1 / cqm=0 / deadzone=21,11 / fast_pskip=1 / chroma_qp_offset=-2 / threads=8 / lookahead_threads=2 / sliced_threads=0 / nr=0 / decimate=1 / interlaced=0 / bluray_compat=0 / stitchable=1 / constrained_intra=0 / bframes=16 / b_pyramid=2 / b_adapt=2 / b_bias=0 / direct=3 / weightb=1 / open_gop=0 / weightp=2 / keyint=250 / keyint_min=126 / scenecut=0 / intra_refresh=0 / rc_lookahead=250 / rc=crf / mbtree=1 / crf=21.0 / qcomp=0.50 / qpmin=6 / qpmax=51 / qpstep=4 / vbv_maxrate=20000 / vbv_bufsize=25000 / crf_max=0.0 / nal_hrd=vbr / filler=0 / ip_ratio=1.40 / aq=1:0.80
Codec configuration box                  : avcC
Audio
ID                                       : 3
Format                                   : E-AC-3
Format/Info                              : Enhanced AC-3
Commercial name                          : Dolby Digital Plus
Codec ID                                 : ec-3
Duration                                 : 1 h 41 min
Bit rate mode                            : Constant
Bit rate                                 : 640 kb/s
Channel(s)                               : 6 channels
Channel layout                           : L R C LFE Ls Rs
Sampling rate                            : 48.0 kHz
Frame rate                               : 31.250 FPS (1536 SPF)
Compression mode                         : Lossy
Stream size                              : 466 MiB (10%)
Title                                    : English [Original]
Language                                 : English
Service kind                             : Complete Main
Default                                  : Yes
Alternate group                          : 1
Text #1
ID                                       : 4
Format                                   : Timed Text
Muxing mode                              : sbtl
Codec ID                                 : tx3g
Duration                                 : 1 h 38 min
Bit rate mode                            : Variable
Bit rate                                 : 112 b/s
Frame rate                               : 0.573 FPS
Stream size                              : 80.8 KiB (0%)
Title                                    : English [CC]
Language                                 : English
Default                                  : Yes
Forced                                   : No
Alternate group                          : 3
Text #2
ID                                       : 5
Format                                   : Timed Text
Muxing mode                              : sbtl
Codec ID                                 : tx3g
Duration                                 : 1 h 39 min
Bit rate mode                            : Variable
Bit rate                                 : 78 b/s
Frame rate                               : 0.540 FPS
Stream size                              : 56.8 KiB (0%)
Title                                    : Simplified Chinese
Language                                 : Chinese
Default                                  : No
Forced                                   : No
Alternate group                          : 3
Text #3
ID                                       : 6
Format                                   : Timed Text
Muxing mode                              : sbtl
Codec ID                                 : tx3g
Duration                                 : 1 h 39 min
Bit rate mode                            : Variable
Bit rate                                 : 77 b/s
Frame rate                               : 0.544 FPS
Stream size                              : 56.5 KiB (0%)
Title                                    : Traditional Chinese
Language                                 : Chinese
Default                                  : No
Forced                                   : No
Alternate group                          : 3
部分资源为软字幕,移动端推荐播放器:MxPlayer,nPlayer,infuse ,其他播放器请自行尝试。
部分资源为软字幕,电脑端推荐播放器:PotPlayer,完美解码,KMPLAYER,其他播放器请自行尝试。
下载端推荐纯BT下载软件:qBittorrent,Bitcomet,uTorrent ,其他下载软件请自行尝试。不支持吸血迅雷。






~~~~~~~~~~~~~~~~~~~~~~~~~~~~~~~~~~~~~~~~~
[2022][欧美][其它][WEB-1080P]玛丽莲·梦露之谜:首次现世的录音[简繁英字幕].2022.1080p.NF.WEB-DL.H264.DDP5.1- 4.65GB

【文件列表】:


2022.1080p.NF.WEB-DL.H264.DDP5.1-SONYHD.



【下载地址列表】:


游客
文件下载链接就在这里,在您回复评论成功后才能显示。
请勿回复无意义的灌水内容。


下拉页面到最底部回复或者【点击此处快捷回复】,回复后返回此处即可查看下载链接。
如您没注册本站会员,可以点击注册本站,注册后即可回复下载。



软字幕无法在截图上展现,HDR版本/杜比视界版本截图会出现颜色异常,请使用支持的设备播放!






[img][/img]






[img][/img]

(HDR版本/杜比视界版本,截图会出现颜色异常,请使用支持的设备播放)

小贴士:【影视自媒体解说文案请移步:夏至文案解说网 www.xiazhi.vip

上一篇:[2014][日本][其它][WEB-1080P]大堡礁上的月亮魔咒[中文字幕].The.Moon's.Spell.On.The.Great.Barrier.Reef.2014.1080p.WEB-DL.H26
下一篇:[2011][其它][其它][WEB-1080P]自然世界:动物之家[中文字幕].The.Natural.World.Animal.House.2011.1080p.WEB-DL.H264.AAC-
回复

使用道具 举报

您需要登录后才可以回帖 登录 | 立即注册

本版积分规则

Archiver|手机版|小众纪录片影视聚合

GMT+8, 2024-7-20 18:45 , Processed in 0.099009 second(s), 12 queries , Gzip On, Redis On.

Powered by 小众纪录片影视聚合 @2010-2023

Copyright © 2010-2024, https://www.xzjlp.com/.


免责说明:本站所有内容链接、图文介绍等均来自于互联网网友分享,本站仅支持web页面展示和文字介绍,绝不提供在线观看和存储服务,也不参与录制、上传、压片。若本站收录内容无意侵犯贵司版权,请发邮件到【a885185#163.com】联系本站,我们将在第一时间删除侵权内容。谢谢!

快速回复 返回顶部 返回列表