小众纪录片影视聚合

 找回密码
 立即注册
查看: 16|回复: 0

[蓝光电影] [2011][其它][其它][WEB-1080P]自然世界:动物之家[中文字幕].The.Natural.World.Animal.House.2011.1080p.WEB-DL.H264.AAC-

[复制链接]

116万

主题

116万

帖子

116万

积分

超级版主

Rank: 8Rank: 8

积分
1167997
发表于 2024-7-9 21:46:04 | 显示全部楼层 |阅读模式


[2011][其它][其它][WEB-1080P]自然世界:动物之家[中文字幕].The.Natural.World.Animal.House.2011.1080p.WEB-DL.H264.AAC-

完整标题:自然世界:动物之家[中文字幕].The.Natural.World.Animal.House.2011.1080p.WEB-DL.H264.AAC-SONYHD 0.94GB
◎标  题 自然世界:动物之家
◎译  名 动物建筑师
◎片  名 The Natural World: Animal House
◎年  代 2011
◎产  地 英国
◎类  别 纪录片
◎语  言 英语
◎上映日期 2011-09-07(英国)
◎IMDb评分 7.8/10 (52人评价)
◎IMDb链接 https://www.imdb.com/title/tt2496534/
◎豆瓣评分 8.5/10 (138人评价)
◎豆瓣链接 https://movie.douban.com/subject/10736460/
◎片  长 59分钟
◎简  介
    在地底 在岩穴 在沙滩                                    不论是单身公寓 还是集体宿舍                                    这里 是它们所有的爱和智慧                                    这里 是它们抵御外敌的阵地                                    这里 是它们抗击严寒的温床                                    树枝石块 纤维唾液 就连废弃的蜘蛛网                                    也被那些神奇的建筑师们变成了遮风避雨的港湾                                    走进动物之家 走进它们的智慧                                    走进 奇妙的大自然吧~(@酸奶)                                    转自夏末秋字幕组##### MediaInfo ######
General
Complete name                            : The.Natural.World.Animal.House.2011.1080p.WEB-DL.H264.AAC-SONYHD.mp4
Duration                                 : 52 min 31 s
Overall bit rate                         : 2 561 kb/s
Video
ID                                       : 1
Format                                   : AVC
Format/Info                              : Advanced Video Codec
Format profile                           : High@L4
Format settings                          : CABAC / 4 Ref Frames
Format settings, CABAC                   : Yes
Format settings, Reference frames        : 4 frames
Codec ID                                 : avc1
Codec ID/Info                            : Advanced Video Coding
Duration                                 : 52 min 31 s
Bit rate                                 : 2 363 kb/s
Width                                    : 1 920 pixels
Height                                   : 1 080 pixels
Display aspect ratio                     : 16:9
Frame rate mode                          : Constant
Frame rate                               : 25.000 FPS
Color space                              : YUV
Chroma subsampling                       : 4:2:0
Bit depth                                : 8 bits
Scan type                                : Progressive
Bits/(Pixel*Frame)                       : 0.046
Stream size                              : 888 MiB (92%)
Writing library                          : BiliBili H264 Encoder v1.0
Color range                              : Limited
Color primaries                          : BT.709
Transfer characteristics                 : BT.709
Matrix coefficients                      : BT.709
Codec configuration box                  : avcC
Audio
ID                                       : 2
Format                                   : AAC LC
Format/Info                              : Advanced Audio Codec Low Complexity
Codec ID                                 : mp4a-40-2
Duration                                 : 52 min 31 s
Bit rate mode                            : Constant
Bit rate                                 : 192 kb/s
Channel(s)                               : 2 channels
Channel layout                           : L R
Sampling rate                            : 48.0 kHz
Frame rate                               : 46.875 FPS (1024 SPF)
Compression mode                         : Lossy
Stream size                              : 72.1 MiB (7%)
Default                                  : Yes
Alternate group                          : 1
部分资源为软字幕,移动端推荐播放器:MxPlayer,nPlayer,infuse ,其他播放器请自行尝试。
部分资源为软字幕,电脑端推荐播放器:PotPlayer,完美解码,KMPLAYER,其他播放器请自行尝试。
下载端推荐纯BT下载软件:qBittorrent,Bitcomet,uTorrent ,其他下载软件请自行尝试。不支持吸血迅雷。






~~~~~~~~~~~~~~~~~~~~~~~~~~~~~~~~~~~~~~~~~
[2011][其它][其它][WEB-1080P]自然世界:动物之家[中文字幕].The.Natural.World.Animal.House.2011.1080p.WEB-DL.H264.AAC-

【文件列表】:


The.Natural.World.Animal.House.2011.1080p.WEB-DL.H264.AAC-SONYHD.



【下载地址列表】:


游客
文件下载链接就在这里,在您回复评论成功后才能显示。
请勿回复无意义的灌水内容。


下拉页面到最底部回复或者【点击此处快捷回复】,回复后返回此处即可查看下载链接。
如您没注册本站会员,可以点击注册本站,注册后即可回复下载。



软字幕无法在截图上展现,HDR版本/杜比视界版本截图会出现颜色异常,请使用支持的设备播放!






[img][/img]






[img][/img]

(HDR版本/杜比视界版本,截图会出现颜色异常,请使用支持的设备播放)

小贴士:【影视自媒体解说文案请移步:夏至文案解说网 www.xiazhi.vip

上一篇:[2022][欧美][其它][WEB-1080P]玛丽莲·梦露之谜:首次现世的录音[简繁英字幕].2022.1080p.NF.WEB-DL.H264.DDP5.1- 4.65GB
下一篇:[2011][其它][其它][WEB-1080P]尼安德特人的黑暗秘密[中文字幕].The.Neanderthals.Dark.Secret.2011.1080p.WEB-DL.H264.AAC-
回复

使用道具 举报

您需要登录后才可以回帖 登录 | 立即注册

本版积分规则

Archiver|手机版|小众纪录片影视聚合

GMT+8, 2024-7-24 23:08 , Processed in 0.065759 second(s), 11 queries , Gzip On, Redis On.

Powered by 小众纪录片影视聚合 @2010-2023

Copyright © 2010-2024, https://www.xzjlp.com/.


免责说明:本站所有内容链接、图文介绍等均来自于互联网网友分享,本站仅支持web页面展示和文字介绍,绝不提供在线观看和存储服务,也不参与录制、上传、压片。若本站收录内容无意侵犯贵司版权,请发邮件到【a885185#163.com】联系本站,我们将在第一时间删除侵权内容。谢谢!

快速回复 返回顶部 返回列表