小众纪录片影视聚合

 找回密码
 立即注册
查看: 11|回复: 0

[蓝光电影] [2021][欧美][其它][BD-1080P]泰国洞穴救援[简繁英字幕].The.Rescue.2021.1080p.BluRay.x265.10bit.DTS- 5.72GB

[复制链接]

113万

主题

113万

帖子

113万

积分

超级版主

Rank: 8Rank: 8

积分
1134816
发表于 2024-7-9 21:46:13 | 显示全部楼层 |阅读模式


[2021][欧美][其它][BD-1080P]泰国洞穴救援[简繁英字幕].The.Rescue.2021.1080p.BluRay.x265.10bit.DTS- 5.72GB

完整标题:泰国洞穴救援[简繁英字幕].The.Rescue.2021.1080p.BluRay.x265.10bit.DTS-SONYHD 5.72GB
◎标  题 泰国洞穴救援
◎译  名 洞穴营救
◎片  名 The Rescue
◎年  代 2021
◎产  地 美国
◎类  别 纪录片
◎语  言 英语
◎上映日期 2021-09-02(特柳赖德电影节) / 2021-10-08(美国)
◎IMDb评分 8.4/10 (19615人评价)
◎IMDb链接 https://www.imdb.com/title/tt9098872/
◎豆瓣评分 9.1/10 (19717人评价)
◎豆瓣链接 https://movie.douban.com/subject/33413473/
◎片  长 107分钟
◎导  演 金国威 Jimmy Chin
       伊丽莎白·柴·瓦沙瑞莉 Elizabeth Chai Vasarhelyi
◎演  员 班查·杜里雅蓬特 Bancha Duriyapunt
       阿帕科恩·尤孔卡尤 Apakorn Youkongkaew
       阿南·苏拉万 Anan Surawan
       沃拉南·拉特拉维布斯 Woranan Ratrawiphukkun
       弗恩·昂斯沃思 Vern Unsworth
       维拉萨·库苏拉特 Weerasak Kowsurat
       瑞克·史坦顿 Rick Stanton
       约翰·瓦伦坦 John Volanthen
       康纳·罗伊 Connor Roe
       理查德·哈里斯 Richard Harris
       斯里普恩·邦诺恩 Siriporn Bangnoen
       伦格里·长桂元 Ruengrit Changkwanyuen
       素拉廷·柴春普 Suratin Chaichoomphu
       本·斯瓦斯蒂·汤姆索 Ben Svasti Thomson
       萨曼·古南 Saman Gunan
       瓦利蓬·古南 Waleeporn Gunan
       德里克·安德森 Derek Anderson
       乔什·布拉奇利 Josh Bratchley
       吉姆·沃尼 Jim Warny
       萨尼特·纳蒂斯里 Thanet Natisri
       本·雷曼南 Ben Reymenants
       颂萨·卡纳坎 Somsak Kanakam
       卡尔·巴班春 Kruba Boonchum
       辛哈纳·洛萨亚 Singhanat Losuya
       阿努蓬·保钦达 Anupong Paochinda
       巴克·罗哈君 Bhak Loharjun
       菲奥娜·哈里斯 Fiona Harris
       克里斯·朱厄尔 Chris Jewell
       杰森·马林森 Jason Mallinson
       克雷格·查伦 Craig Challen
       埃卡波尔·占塔旺 Ekapol Chanthawong
       米奇·托雷尔 Mitch Torrel
       米科·帕西 Mikko Paasi
       约书亚·莫里斯 Joshua Morris
       罗伯·哈珀 Rob Harper
◎简  介
    本片讲述了2018年被困在泰国洞穴中的野猪青年足球队以及他们最终被救援的戏剧性故事。凭借独家访问权限和前所未见的救援镜头,这部电影讲述了洞穴潜水员的故事,他们挑战了人类潜力的极限,并成就了一个生动人心魄的英雄们赌上生命的故事。##### MediaInfo ######
General
Unique ID                                : 184161090859123856538589079632436750296 (0x8A8C22CD7743DB78FED4D3AB7DF767D8)
Complete name                            : The.Rescue.2021.1080p.BluRay.x265.10bit.DTS-SONYHD.mkv
Duration                                 : 1 h 47 min
Overall bit rate                         : 7 629 kb/s
Video
ID                                       : 1
Format                                   : HEVC
Format/Info                              : High Efficiency Video Coding
Format profile                           : Main 10@L5@Main
Codec ID                                 : V_MPEGH/ISO/HEVC
Duration                                 : 1 h 47 min
Bit rate                                 : 6 062 kb/s
Width                                    : 1 920 pixels
Height                                   : 1 036 pixels
Display aspect ratio                     : 1.85:1
Frame rate mode                          : Constant
Frame rate                               : 23.976 (24000/1001) FPS
Color space                              : YUV
Chroma subsampling                       : 4:2:0
Bit depth                                : 10 bits
Bits/(Pixel*Frame)                       : 0.127
Stream size                              : 4.54 GiB (79%)
Writing library                          : x265 3.5g2b25c9ba0+45:[Windows][GCC 10.2.0][64 bit] Yuuki 10bit+8bit+12bit
Encoding settings                        : rc=crf / crf=18.0000 / qcomp=0.60 / qpstep=4 / stats-write=0 / stats-read=0 / no-lossless / no-cu-lossless / aq-mode=3 / aq-strength=0.90 / cbqpoffs=0 / crqpoffs=0 / ipratio=1.40 / pbratio=1.30 / psy-rd=2.00 / psy-rdoq=0.00 / deblock=0:0 / ref=6 / limit-refs=1 / no-limit-modes / bframes=8 / b-adapt=2 / bframe-bias=0 / b-pyramid / b-intra / weightp / weightb / min-keyint=24 / max-keyint=240 / rc-lookahead=24 / gop-lookahead=0 / scenecut=40 / hist-scenecut=0 / radl=0 / max-cu-size=64 / min-cu-size=8 / me=3 / subme=7 / merange=48 / rdoq-level=0 / rd=4 / rdpenalty=0 / dynamic-rd=0.00 / no-rd-refine / ----- / cutree / sao / no-rect / no-amp / no-open-gop / wpp / no-pmode / no-pme / no-psnr / no-ssim / nr-intra=0 / nr-inter=0 / no-constrained-intra / no-strong-intra-smoothing / max-tu-size=32 / tu-inter-depth=1 / tu-intra-depth=1 / limit-tu=0 / qg-size=32 / qpmax=69 / qpmin=0 / ----- / cpuid=1111039 / frame-threads=4 / numa-pools=+ / log-level=2 / input-csp=1 / input-res=1920x1036 / interlace=0 / level-idc=0 / high-tier=1 / uhd-bd=0 / no-allow-non-conformance / no-repeat-headers / aud / no-hrd / info / hash=0 / no-temporal-layers / lookahead-slices=0 / no-splice / no-intra-refresh / no-ssim-rd / signhide / no-tskip / max-merge=3 / temporal-mvp / no-frame-dup / no-hme / no-analyze-src-pics / no-sao-non-deblock / selective-sao=4 / early-skip / rskip / no-fast-intra / no-tskip-fast / no-splitrd-skip / zone-count=0 / no-strict-cbr / no-rc-grain / no-const-vbv / sar=0 / overscan=0 / videoformat=5 / range=0 / colorprim=2 / transfer=2 / colormatrix=2 / chromaloc=0 / display-window=0 / cll=0,0 / min-luma=0 / max-luma=1023 / log2-max-poc-lsb=8 / vui-timing-info / vui-hrd-info / slices=1 / no-opt-qp-pps / no-opt-ref-list-length-pps / no-multi-pass-opt-rps / scenecut-bias=0.05 / hist-threshold=0.03 / no-opt-cu-delta-qp / no-aq-motion / no-hdr10 / no-hdr10-opt / no-dhdr10-opt / no-idr-recovery-sei / analysis-reuse-level=0 / analysis-save-reuse-level=0 / analysis-load-reuse-level=0 / scale-factor=0 / refine-intra=0 / refine-inter=0 / refine-mv=1 / refine-ctu-distortion=0 / no-limit-sao / ctu-info=0 / no-lowpass-dct / refine-analysis-type=0 / copy-pic=1 / max-ausize-factor=1.0 / no-dynamic-refine / no-single-sei / no-hevc-aq / no-svt / no-field / qp-adaptation-range=1.00 / scenecut-aware-qp=0conformance-window-offsets / right=0 / bottom=0 / decoder-max-rate=0 / no-vbv-live-multi-pass
Default                                  : Yes
Forced                                   : No
Audio
ID                                       : 2
ID in the original source medium         : 4352 (0x1100)
Format                                   : DTS
Format/Info                              : Digital Theater Systems
Codec ID                                 : A_DTS
Duration                                 : 1 h 47 min
Bit rate mode                            : Constant
Bit rate                                 : 1 509 kb/s
Channel(s)                               : 6 channels
Channel layout                           : C L R Ls Rs LFE
Sampling rate                            : 48.0 kHz
Frame rate                               : 93.750 FPS (512 SPF)
Bit depth                                : 16 bits
Compression mode                         : Lossy
Stream size                              : 1.13 GiB (20%)
Language                                 : English
Default                                  : Yes
Forced                                   : No
Original source medium                   : Blu-ray
Text #1
ID                                       : 3
ID in the original source medium         : 4609 (0x1201)
Format                                   : PGS
Muxing mode                              : zlib
Codec ID                                 : S_HDMV/PGS
Codec ID/Info                            : Picture based subtitle format used on BDs/HD-DVDs
Duration                                 : 1 h 43 min
Bit rate                                 : 39.7 kb/s
Frame rate                               : 0.326 FPS
Count of elements                        : 2019
Stream size                              : 29.3 MiB (1%)
Title                                    : chs
Language                                 : Chinese
Default                                  : Yes
Forced                                   : No
Original source medium                   : Blu-ray
Text #2
ID                                       : 4
ID in the original source medium         : 4610 (0x1202)
Format                                   : PGS
Muxing mode                              : zlib
Codec ID                                 : S_HDMV/PGS
Codec ID/Info                            : Picture based subtitle format used on BDs/HD-DVDs
Duration                                 : 1 h 43 min
Bit rate                                 : 40.3 kb/s
Frame rate                               : 0.326 FPS
Count of elements                        : 2019
Stream size                              : 29.7 MiB (1%)
Title                                    : cht
Language                                 : Chinese
Default                                  : No
Forced                                   : No
Original source medium                   : Blu-ray
Text #3
ID                                       : 5
ID in the original source medium         : 4608 (0x1200)
Format                                   : PGS
Muxing mode                              : zlib
Codec ID                                 : S_HDMV/PGS
Codec ID/Info                            : Picture based subtitle format used on BDs/HD-DVDs
Duration                                 : 1 h 46 min
Bit rate                                 : 43.0 kb/s
Frame rate                               : 0.447 FPS
Count of elements                        : 2854
Stream size                              : 32.8 MiB (1%)
Title                                    : eng
Language                                 : English
Default                                  : No
Forced                                   : No
Original source medium                   : Blu-ray
Menu
00:00:00.000                             : en:第 01 章
00:07:15.810                             : en:第 02 章
00:13:37.733                             : en:第 03 章
00:22:04.448                             : en:第 04 章
00:30:12.393                             : en:第 05 章
00:46:51.892                             : en:第 06 章
00:55:08.179                             : en:第 07 章
01:02:18.568                             : en:第 08 章
01:11:40.838                             : en:第 09 章
01:27:32.121                             : en:第 10 章
01:37:14.286                             : en:第 11 章
01:43:28.202                             : en:第 12 章
部分资源为软字幕,移动端推荐播放器:MxPlayer,nPlayer,infuse ,其他播放器请自行尝试。
部分资源为软字幕,电脑端推荐播放器:PotPlayer,完美解码,KMPLAYER,其他播放器请自行尝试。
下载端推荐纯BT下载软件:qBittorrent,Bitcomet,uTorrent ,其他下载软件请自行尝试。不支持吸血迅雷。






~~~~~~~~~~~~~~~~~~~~~~~~~~~~~~~~~~~~~~~~~
[2021][欧美][其它][BD-1080P]泰国洞穴救援[简繁英字幕].The.Rescue.2021.1080p.BluRay.x265.10bit.DTS- 5.72GB

【文件列表】:


The.Rescue.2021.1080p.BluRay.x265.10bit.DTS-SONYHD.



【下载地址列表】:


游客
文件下载链接就在这里,在您回复评论成功后才能显示。
请勿回复无意义的灌水内容。


下拉页面到最底部回复或者【点击此处快捷回复】,回复后返回此处即可查看下载链接。
如您没注册本站会员,可以点击注册本站,注册后即可回复下载。



软字幕无法在截图上展现,HDR版本/杜比视界版本截图会出现颜色异常,请使用支持的设备播放!






[img][/img]






[img][/img]

(HDR版本/杜比视界版本,截图会出现颜色异常,请使用支持的设备播放)

小贴士:【影视自媒体解说文案请移步:夏至文案解说网 www.xiazhi.vip

上一篇:[2021][欧美][其它][BD-1080P]泰国洞穴救援[简繁英字幕].The.Rescue.2021.1080p.BluRay.x264.DTS- 10.01GB
下一篇:[2020][欧美][其它][WEB-1080P]监视资本主义:智能陷阱[简繁英字幕].The.Social.Dilemma.2020.1080p.NF.WEB-DL.x264.DDP5.1- 2.
回复

使用道具 举报

您需要登录后才可以回帖 登录 | 立即注册

本版积分规则

Archiver|手机版|小众纪录片影视聚合

GMT+8, 2024-7-22 07:14 , Processed in 0.181928 second(s), 11 queries , Gzip On, Redis On.

Powered by 小众纪录片影视聚合 @2010-2023

Copyright © 2010-2024, https://www.xzjlp.com/.


免责说明:本站所有内容链接、图文介绍等均来自于互联网网友分享,本站仅支持web页面展示和文字介绍,绝不提供在线观看和存储服务,也不参与录制、上传、压片。若本站收录内容无意侵犯贵司版权,请发邮件到【a885185#163.com】联系本站,我们将在第一时间删除侵权内容。谢谢!

快速回复 返回顶部 返回列表