小众纪录片影视聚合

 找回密码
 立即注册
查看: 12|回复: 0

[蓝光电影] [2020][欧美][其它][WEB-1080P]监视资本主义:智能陷阱[简繁英字幕].The.Social.Dilemma.2020.1080p.NF.WEB-DL.x264.DDP5.1- 2.

[复制链接]

113万

主题

113万

帖子

113万

积分

超级版主

Rank: 8Rank: 8

积分
1134020
发表于 2024-7-9 21:46:17 | 显示全部楼层 |阅读模式


[2020][欧美][其它][WEB-1080P]监视资本主义:智能陷阱[简繁英字幕].The.Social.Dilemma.2020.1080p.NF.WEB-DL.x264.DDP5.1- 2.

完整标题:监视资本主义:智能陷阱[简繁英字幕].The.Social.Dilemma.2020.1080p.NF.WEB-DL.x264.DDP5.1-SONYHD 2.28GB
◎标  题 监视资本主义:智能陷阱
◎译  名 社交困境 / 愿者上网(港) / 智能社会:进退两难(台)
◎片  名 The Social Dilemma
◎年  代 2020
◎产  地 美国
◎类  别 纪录片
◎语  言 英语
◎上映日期 2020-09-09(美国)
◎IMDb评分 7.6/10 (88061人评价)
◎IMDb链接 https://www.imdb.com/title/tt11464826/
◎豆瓣评分 8.7/10 (41748人评价)
◎豆瓣链接 https://movie.douban.com/subject/34960008/
◎片  长 94分钟
◎导  演 杰夫·奥洛威斯基 Jeff Orlowski
◎编  剧 戴维斯·库姆贝 Davis Coombe
       维奇·柯蒂斯 Vickie Curtis
       杰夫·奥洛威斯基 Jeff Orlowski
◎演  员 杰伦·拉尼尔 Jaron Lanier
       罗杰·麦克纳米 Roger McNamee
       斯凯勒·吉桑多 Skyler Gisondo
       卡拉·海沃德 Kara Hayward
       文森特·卡塞瑟 Vincent Kartheiser
       马蒂·林赛 Marty Lindsey
       Ena Henderson Ena Henderson
       Chase Penny Chase Penny
◎简  介
    我们发推文、点赞、分享 — 但日益依赖社交媒体会带来什么后果?随着数字平台日益成为人们保持联系的重要方式,硅谷内部人士通过暴露屏幕另一侧的隐藏内容,揭示了社交媒体如何重新改写文明。##### MediaInfo ######
General
Complete name                            : The.Social.Dilemma.2020.1080p.NF.WEB-DL.x264.DDP5.1-SONYHD.mp4
Duration                                 : 1 h 34 min
Overall bit rate mode                    : Variable
Overall bit rate                         : 3 440 kb/s
Video
ID                                       : 1
Format                                   : AVC
Format/Info                              : Advanced Video Codec
Format profile                           : High@L4
Format settings                          : CABAC / 4 Ref Frames
Format settings, CABAC                   : Yes
Format settings, Reference frames        : 4 frames
Codec ID                                 : avc1
Codec ID/Info                            : Advanced Video Coding
Duration                                 : 1 h 34 min
Bit rate mode                            : Variable
Bit rate                                 : 2 154 kb/s
Maximum bit rate                         : 20.0 Mb/s
Width                                    : 1 920 pixels
Height                                   : 1 080 pixels
Display aspect ratio                     : 16:9
Frame rate mode                          : Constant
Frame rate                               : 23.976 (24000/1001) FPS
Color space                              : YUV
Chroma subsampling                       : 4:2:0
Bit depth                                : 8 bits
Scan type                                : Progressive
Bits/(Pixel*Frame)                       : 0.043
Stream size                              : 1.42 GiB (63%)
Title                                    : [email protected]
Writing library                          : x264 core 148 r2722 1b0121b
Encoding settings                        : cabac=1 / ref=4 / deblock=1:0:0 / analyse=0x3:0x111 / me=umh / subme=10 / psy=1 / psy_rd=1.00:0.00 / mixed_ref=1 / me_range=120 / chroma_me=1 / trellis=2 / 8x8dct=1 / cqm=0 / deadzone=21,11 / fast_pskip=1 / chroma_qp_offset=-2 / threads=8 / lookahead_threads=2 / sliced_threads=0 / nr=0 / decimate=1 / interlaced=0 / bluray_compat=0 / stitchable=1 / constrained_intra=0 / bframes=16 / b_pyramid=2 / b_adapt=2 / b_bias=0 / direct=3 / weightb=1 / open_gop=0 / weightp=2 / keyint=240 / keyint_min=121 / scenecut=0 / intra_refresh=0 / rc_lookahead=240 / rc=crf / mbtree=1 / crf=18.0 / qcomp=0.50 / qpmin=6 / qpmax=51 / qpstep=4 / vbv_maxrate=20000 / vbv_bufsize=25000 / crf_max=0.0 / nal_hrd=vbr / filler=0 / ip_ratio=1.40 / aq=1:0.80
Codec configuration box                  : avcC
Audio #1
ID                                       : 3
Format                                   : E-AC-3
Format/Info                              : Enhanced AC-3
Commercial name                          : Dolby Digital Plus
Codec ID                                 : ec-3
Duration                                 : 1 h 34 min
Bit rate mode                            : Constant
Bit rate                                 : 640 kb/s
Channel(s)                               : 6 channels
Channel layout                           : L R C LFE Ls Rs
Sampling rate                            : 48.0 kHz
Frame rate                               : 31.250 FPS (1536 SPF)
Compression mode                         : Lossy
Stream size                              : 434 MiB (19%)
Title                                    : English [Original]
Language                                 : English
Service kind                             : Complete Main
Default                                  : Yes
Alternate group                          : 2
Audio #2
ID                                       : 4
Format                                   : E-AC-3
Format/Info                              : Enhanced AC-3
Commercial name                          : Dolby Digital Plus
Codec ID                                 : ec-3
Duration                                 : 1 h 34 min
Bit rate mode                            : Constant
Bit rate                                 : 640 kb/s
Channel(s)                               : 6 channels
Channel layout                           : L R C LFE Ls Rs
Sampling rate                            : 48.0 kHz
Frame rate                               : 31.250 FPS (1536 SPF)
Compression mode                         : Lossy
Stream size                              : 434 MiB (19%)
Title                                    : English - Audio Description
Language                                 : English
Service kind                             : Complete Main
Default                                  : Yes
Alternate group                          : 3
Text #1
ID                                       : 5
Format                                   : Timed Text
Muxing mode                              : sbtl
Codec ID                                 : tx3g
Duration                                 : 1 h 33 min
Bit rate mode                            : Variable
Bit rate                                 : 126 b/s
Frame rate                               : 0.609 FPS
Stream size                              : 86.5 KiB (0%)
Title                                    : English [CC]
Language                                 : English
Default                                  : Yes
Forced                                   : No
Alternate group                          : 4
Text #2
ID                                       : 6
Format                                   : Timed Text
Muxing mode                              : sbtl
Codec ID                                 : tx3g
Duration                                 : 1 h 33 min
Bit rate mode                            : Variable
Bit rate                                 : 100 b/s
Frame rate                               : 0.576 FPS
Stream size                              : 68.8 KiB (0%)
Title                                    : Simplified Chinese
Language                                 : Chinese
Default                                  : No
Forced                                   : No
Alternate group                          : 5
Text #3
ID                                       : 7
Format                                   : Timed Text
Muxing mode                              : sbtl
Codec ID                                 : tx3g
Duration                                 : 1 h 33 min
Bit rate mode                            : Variable
Bit rate                                 : 93 b/s
Frame rate                               : 0.574 FPS
Stream size                              : 63.7 KiB (0%)
Title                                    : Traditional Chinese
Language                                 : Chinese
Default                                  : No
Forced                                   : No
Alternate group                          : 6
部分资源为软字幕,移动端推荐播放器:MxPlayer,nPlayer,infuse ,其他播放器请自行尝试。
部分资源为软字幕,电脑端推荐播放器:PotPlayer,完美解码,KMPLAYER,其他播放器请自行尝试。
下载端推荐纯BT下载软件:qBittorrent,Bitcomet,uTorrent ,其他下载软件请自行尝试。不支持吸血迅雷。






~~~~~~~~~~~~~~~~~~~~~~~~~~~~~~~~~~~~~~~~~
[2020][欧美][其它][WEB-1080P]监视资本主义:智能陷阱[简繁英字幕].The.Social.Dilemma.2020.1080p.NF.WEB-DL.x264.DDP5.1- 2.

【文件列表】:


The.Social.Dilemma.2020.1080p.NF.WEB-DL.x264.DDP5.1-SONYHD.



【下载地址列表】:


游客
文件下载链接就在这里,在您回复评论成功后才能显示。
请勿回复无意义的灌水内容。


下拉页面到最底部回复或者【点击此处快捷回复】,回复后返回此处即可查看下载链接。
如您没注册本站会员,可以点击注册本站,注册后即可回复下载。



软字幕无法在截图上展现,HDR版本/杜比视界版本截图会出现颜色异常,请使用支持的设备播放!






[img][/img]






[img][/img]

(HDR版本/杜比视界版本,截图会出现颜色异常,请使用支持的设备播放)

小贴士:【影视自媒体解说文案请移步:夏至文案解说网 www.xiazhi.vip

上一篇:[2021][欧美][其它][BD-1080P]泰国洞穴救援[简繁英字幕].The.Rescue.2021.1080p.BluRay.x265.10bit.DTS- 5.72GB
下一篇:[2022][欧美][其它][WEB-1080P]007之声[简繁英字幕].The.Sound.of.007.2022.1080p.AMZN.WEB-DL.x264.DDP5.1- 5.93GB
回复

使用道具 举报

您需要登录后才可以回帖 登录 | 立即注册

本版积分规则

Archiver|手机版|小众纪录片影视聚合

GMT+8, 2024-7-20 16:42 , Processed in 1.005520 second(s), 12 queries , Gzip On, Redis On.

Powered by 小众纪录片影视聚合 @2010-2023

Copyright © 2010-2024, https://www.xzjlp.com/.


免责说明:本站所有内容链接、图文介绍等均来自于互联网网友分享,本站仅支持web页面展示和文字介绍,绝不提供在线观看和存储服务,也不参与录制、上传、压片。若本站收录内容无意侵犯贵司版权,请发邮件到【a885185#163.com】联系本站,我们将在第一时间删除侵权内容。谢谢!

快速回复 返回顶部 返回列表