小众纪录片影视聚合

 找回密码
 立即注册
查看: 6|回复: 0

[蓝光电影] [更 早][其它][其它][BD-1080P]意志的胜利[简繁英字幕].The.Triumph.of.the.Will.1935.1080p.BluRay.x264.FLAC.2.0.2Audio-SONY

[复制链接]

116万

主题

116万

帖子

116万

积分

超级版主

Rank: 8Rank: 8

积分
1167997
发表于 2024-7-9 21:46:26 | 显示全部楼层 |阅读模式


[更 早][其它][其它][BD-1080P]意志的胜利[简繁英字幕].The.Triumph.of.the.Will.1935.1080p.BluRay.x264.FLAC.2.0.2Audio-SONY

完整标题:意志的胜利[简繁英字幕].The.Triumph.of.the.Will.1935.1080p.BluRay.x264.FLAC.2.0.2Audio-SONYHD 11.60GB
◎标  题 意志的胜利
◎译  名 Triumph of the Will
◎片  名 Triumph des Willens
◎年  代 1935
◎产  地 德国
◎类  别 纪录片 / 战争
◎语  言 德语
◎上映日期 1935-03-28(德国)
◎IMDb评分 7.1/10 (18125人评价)
◎IMDb链接 https://www.imdb.com/title/tt0025913/
◎豆瓣评分 8.5/10 (17690人评价)
◎豆瓣链接 https://movie.douban.com/subject/1306186/
◎片  长 114分钟 / 110分钟(美国)
◎导  演 莱妮·里芬施塔尔 Leni Riefenstahl
◎编  剧 莱妮·里芬施塔尔 Leni Riefenstahl
       沃尔特·鲁特曼 Walter Ruttmann
◎演  员 马克斯·阿曼 Max Amann
       马丁·鲍曼 Martin Bormann
       莱因哈德·海德里希 Reinhard Heydrich
       罗伯特·莱伊 Robert Ley
       Fritz Reinhardt Fritz Reinhardt
       Fritz Todt Fritz Todt
       Walter Buch Walter Buch
       维克多·鲁兹 Viktor Lutze
       阿尔弗雷德·罗森堡 Alfred Rosenberg
       格尔德·冯·伦德施泰特 Gerd von Rundstedt
       赫尔曼·戈林 Hermann Göring
       汉斯·弗兰克 Hans Frank
       Adolf Wagner Adolf Wagner
       维尔纳·冯·布隆贝格 Werner von Blomberg
       泽普·迪特里希 Sepp Dietrich
       海因里希·希姆莱 Heinrich Himmler
       埃里希·雷德尔 Erich Raeder
       Jakob Grimminger Jakob Grimminger
       巴尔杜·冯·席腊赫 Baldur von Schirach
       亚尔马·沙赫特 Hjalmar Schacht
       Hans Georg von Friedeburg Hans Georg von Friedeburg
       鲁道夫·赫斯 Rudolf Hess
       约瑟夫·戈培尔 Josef Goebbels
       Konstantin Hierl Konstantin Hierl
       尤利乌斯·施特莱彻 Julius Streicher
       Walter Darré Walter Darré
◎简  介
    1934年,德国著名女导演莱尼•里芬斯塔尔(Leni Riefenstahl)受邀拍摄了《意志的胜利》。影片由纳粹构思,第三帝国出资赞助,记录了纳粹巅峰时期的会议、集会和游行盛况。为配合拍摄,帝国提供无限制的经费,一百多人的摄制组,无数的聚光灯,十六名一流摄影师、三十台 摄影机、二十二辆配备司机的汽车和身着制服的机动警官,这庞大且豪华的摄制队伍加上里芬斯塔尔天才的创造力和美学理念,为影史奉上了一部最为完美也最受争议的杰作。                                    《意志的胜利》被称为“最具权威性的宣传电影”,它荣获1935年威尼斯电影节和巴黎电影节最佳纪录片奖。##### MediaInfo ######
General
Unique ID                                : 71035879612011845642293689102876571708 (0x35710344B3D3169F048B0048C544783C)
Complete name                            : The.Triumph.of.the.Will.1935.1080p.BluRay.x264.FLAC.2.0.2Audio-SONYHD.mkv
Duration                                 : 1 h 50 min
Overall bit rate mode                    : Variable
Overall bit rate                         : 15.0 Mb/s
Video
ID                                       : 1
Format                                   : AVC
Format/Info                              : Advanced Video Codec
Format profile                           : [email protected]
Format settings                          : CABAC / 4 Ref Frames
Format settings, CABAC                   : Yes
Format settings, Reference frames        : 4 frames
Codec ID                                 : V_MPEG4/ISO/AVC
Duration                                 : 1 h 50 min
Bit rate                                 : 14.2 Mb/s
Width                                    : 1 294 pixels
Height                                   : 1 080 pixels
Display aspect ratio                     : 1.198
Frame rate mode                          : Constant
Frame rate                               : 23.976 (24000/1001) FPS
Color space                              : YUV
Chroma subsampling                       : 4:2:0
Bit depth                                : 8 bits
Scan type                                : Progressive
Bits/(Pixel*Frame)                       : 0.425
Stream size                              : 11.0 GiB (95%)
Writing library                          : x264 core 164 r3085+55M 938b6d0 t_mod_New [(8 & 10)-bit@all X86_64]
Encoding settings                        : cabac=1 / ref=4 / deblock=1:-3:-3 / analyse=0x3:0x133 / me=umh / subme=11 / psy=1 / fade_compensate=0.00 / psy_rd=1.00:0.00 / mixed_ref=1 / me_range=48 / chroma_me=1 / trellis=2 / 8x8dct=1 / cqm=0 / deadzone=21,11 / fast_pskip=0 / chroma_qp_offset=-3 / threads=30 / lookahead_threads=7 / sliced_threads=0 / nr=0 / decimate=0 / interlaced=0 / bluray_compat=0 / constrained_intra=0 / fgo=0 / bframes=11 / b_pyramid=2 / b_adapt=2 / b_bias=0 / direct=3 / weightb=1 / open_gop=0 / weightp=2 / keyint=240 / keyint_min=1 / scenecut=40 / intra_refresh=0 / rc_lookahead=72 / rc=crf / mbtree=0 / crf=17.9400 / qcomp=0.65 / qpmin=0:0:0 / qpmax=69:69:69 / qpstep=4 / vbv_maxrate=62500 / vbv_bufsize=78125 / crf_max=0.0 / nal_hrd=none / filler=0 / ip_ratio=1.40 / pb_ratio=1.30 / aq=3:0.81 / aq-sensitivity=10.00 / aq-factor=1.00:1.00:1.00 / aq2=0 / aq3=0
Default                                  : Yes
Forced                                   : No
Audio #1
ID                                       : 2
Format                                   : FLAC
Format/Info                              : Free Lossless Audio Codec
Codec ID                                 : A_FLAC
Duration                                 : 1 h 50 min
Bit rate mode                            : Variable
Bit rate                                 : 363 kb/s
Channel(s)                               : 2 channels
Channel layout                           : L R
Sampling rate                            : 48.0 kHz
Frame rate                               : 11.719 FPS (4096 SPF)
Bit depth                                : 16 bits
Compression mode                         : Lossless
Stream size                              : 288 MiB (2%)
Writing library                          : libFLAC 1.2.1 (UTC 2007-09-17)
Language                                 : German
Default                                  : Yes
Forced                                   : No
Audio #2
ID                                       : 3
ID in the original source medium         : 4353 (0x1101)
Format                                   : AC-3
Format/Info                              : Audio Coding 3
Commercial name                          : Dolby Digital
Codec ID                                 : A_AC3
Duration                                 : 1 h 50 min
Bit rate mode                            : Constant
Bit rate                                 : 192 kb/s
Channel(s)                               : 2 channels
Channel layout                           : L R
Sampling rate                            : 48.0 kHz
Frame rate                               : 31.250 FPS (1536 SPF)
Compression mode                         : Lossy
Delay relative to video                  : 42 ms
Stream size                              : 152 MiB (1%)
Title                                    : commentary
Language                                 : English
Service kind                             : Complete Main
Default                                  : Yes
Forced                                   : No
Original source medium                   : Blu-ray
Text #1
ID                                       : 4
ID in the original source medium         : 4612 (0x1204)
Format                                   : PGS
Muxing mode                              : zlib
Codec ID                                 : S_HDMV/PGS
Codec ID/Info                            : Picture based subtitle format used on BDs/HD-DVDs
Duration                                 : 1 h 50 min
Bit rate                                 : 56.9 kb/s
Frame rate                               : 0.358 FPS
Count of elements                        : 2379
Stream size                              : 45.1 MiB (0%)
Title                                    : chs&eng
Language                                 : Chinese
Default                                  : Yes
Forced                                   : No
Original source medium                   : Blu-ray
Text #2
ID                                       : 5
ID in the original source medium         : 4613 (0x1205)
Format                                   : PGS
Muxing mode                              : zlib
Codec ID                                 : S_HDMV/PGS
Codec ID/Info                            : Picture based subtitle format used on BDs/HD-DVDs
Duration                                 : 1 h 50 min
Bit rate                                 : 57.0 kb/s
Frame rate                               : 0.358 FPS
Count of elements                        : 2379
Stream size                              : 45.1 MiB (0%)
Title                                    : cht&eng
Language                                 : Chinese
Default                                  : Yes
Forced                                   : No
Original source medium                   : Blu-ray
Text #3
ID                                       : 6
ID in the original source medium         : 4614 (0x1206)
Format                                   : PGS
Muxing mode                              : zlib
Codec ID                                 : S_HDMV/PGS
Codec ID/Info                            : Picture based subtitle format used on BDs/HD-DVDs
Duration                                 : 1 h 50 min
Bit rate                                 : 49.3 kb/s
Frame rate                               : 0.358 FPS
Count of elements                        : 2379
Stream size                              : 39.0 MiB (0%)
Title                                    : chs
Language                                 : Chinese
Default                                  : Yes
Forced                                   : No
Original source medium                   : Blu-ray
Text #4
ID                                       : 7
ID in the original source medium         : 4615 (0x1207)
Format                                   : PGS
Muxing mode                              : zlib
Codec ID                                 : S_HDMV/PGS
Codec ID/Info                            : Picture based subtitle format used on BDs/HD-DVDs
Duration                                 : 1 h 50 min
Bit rate                                 : 49.4 kb/s
Frame rate                               : 0.358 FPS
Count of elements                        : 2379
Stream size                              : 39.1 MiB (0%)
Title                                    : cht
Language                                 : Chinese
Default                                  : Yes
Forced                                   : No
Original source medium                   : Blu-ray
Text #5
ID                                       : 8
ID in the original source medium         : 4616 (0x1208)
Format                                   : PGS
Muxing mode                              : zlib
Codec ID                                 : S_HDMV/PGS
Codec ID/Info                            : Picture based subtitle format used on BDs/HD-DVDs
Duration                                 : 1 h 50 min
Bit rate                                 : 39.2 kb/s
Frame rate                               : 0.402 FPS
Count of elements                        : 2666
Stream size                              : 31.0 MiB (0%)
Title                                    : commentary chs
Language                                 : Chinese
Default                                  : Yes
Forced                                   : No
Original source medium                   : Blu-ray
Text #6
ID                                       : 9
ID in the original source medium         : 4617 (0x1209)
Format                                   : PGS
Muxing mode                              : zlib
Codec ID                                 : S_HDMV/PGS
Codec ID/Info                            : Picture based subtitle format used on BDs/HD-DVDs
Duration                                 : 1 h 50 min
Bit rate                                 : 42.8 kb/s
Frame rate                               : 0.402 FPS
Count of elements                        : 2666
Stream size                              : 33.8 MiB (0%)
Title                                    : commentary cht
Language                                 : Chinese
Default                                  : Yes
Forced                                   : No
Original source medium                   : Blu-ray
Text #7
ID                                       : 10
ID in the original source medium         : 4608 (0x1200)
Format                                   : PGS
Muxing mode                              : zlib
Codec ID                                 : S_HDMV/PGS
Codec ID/Info                            : Picture based subtitle format used on BDs/HD-DVDs
Duration                                 : 1 h 25 min
Bit rate                                 : 19.1 kb/s
Frame rate                               : 0.162 FPS
Count of elements                        : 830
Stream size                              : 11.7 MiB (0%)
Title                                    : eng
Language                                 : English
Default                                  : No
Forced                                   : No
Original source medium                   : Blu-ray
Menu
00:00:00.000                             : en:Chapter 01
00:02:21.683                             : en:Chapter 02
00:06:35.269                             : en:Chapter 03
00:11:13.756                             : en:Chapter 04
00:14:11.308                             : en:Chapter 05
00:20:22.012                             : en:Chapter 06
00:22:30.182                             : en:Chapter 07
00:24:44.691                             : en:Chapter 08
00:34:25.354                             : en:Chapter 09
00:41:30.362                             : en:Chapter 10
00:45:12.042                             : en:Chapter 11
00:55:26.489                             : en:Chapter 12
00:56:55.703                             : en:Chapter 13
01:05:15.912                             : en:Chapter 14
01:16:55.277                             : en:Chapter 15
01:30:36.556                             : en:Chapter 16
01:35:15.584                             : en:Chapter 17
01:47:19.391                             : en:Chapter 18
01:50:42.177                             : en:Chapter 19
部分资源为软字幕,移动端推荐播放器:MxPlayer,nPlayer,infuse ,其他播放器请自行尝试。
部分资源为软字幕,电脑端推荐播放器:PotPlayer,完美解码,KMPLAYER,其他播放器请自行尝试。
下载端推荐纯BT下载软件:qBittorrent,Bitcomet,uTorrent ,其他下载软件请自行尝试。不支持吸血迅雷。






~~~~~~~~~~~~~~~~~~~~~~~~~~~~~~~~~~~~~~~~~
[更 早][其它][其它][BD-1080P]意志的胜利[简繁英字幕].The.Triumph.of.the.Will.1935.1080p.BluRay.x264.FLAC.2.0.2Audio-SONY

【文件列表】:


The.Triumph.of.the.Will.1935.1080p.BluRay.x264.FLAC.2.0.2Audio-SONYHD.



【下载地址列表】:


游客
文件下载链接就在这里,在您回复评论成功后才能显示。
请勿回复无意义的灌水内容。


下拉页面到最底部回复或者【点击此处快捷回复】,回复后返回此处即可查看下载链接。
如您没注册本站会员,可以点击注册本站,注册后即可回复下载。



软字幕无法在截图上展现,HDR版本/杜比视界版本截图会出现颜色异常,请使用支持的设备播放!






[img][/img]






[img][/img]

(HDR版本/杜比视界版本,截图会出现颜色异常,请使用支持的设备播放)

小贴士:【影视自媒体解说文案请移步:夏至文案解说网 www.xiazhi.vip

上一篇:[更 早][欧美][其它][BD-1080P]细细的蓝线[简繁英字幕].The.Thin.Blue.Line.1988.CC.1080p.BluRay.x265.10bit.FLAC.2.0-
下一篇:[2016][欧美][其它][WEB-1080P]作弊的真相[中文字幕].The.Truth.About.Cheating.2016.1080p.WEB-DL.H264.AAC- 1.00GB
回复

使用道具 举报

您需要登录后才可以回帖 登录 | 立即注册

本版积分规则

Archiver|手机版|小众纪录片影视聚合

GMT+8, 2024-7-25 02:28 , Processed in 0.258654 second(s), 12 queries , Gzip On, Redis On.

Powered by 小众纪录片影视聚合 @2010-2023

Copyright © 2010-2024, https://www.xzjlp.com/.


免责说明:本站所有内容链接、图文介绍等均来自于互联网网友分享,本站仅支持web页面展示和文字介绍,绝不提供在线观看和存储服务,也不参与录制、上传、压片。若本站收录内容无意侵犯贵司版权,请发邮件到【a885185#163.com】联系本站,我们将在第一时间删除侵权内容。谢谢!

快速回复 返回顶部 返回列表