小众纪录片影视聚合

 找回密码
 立即注册
查看: 4|回复: 0

[蓝光电影] [2016][欧美][其它][WEB-1080P]作弊的真相[中文字幕].The.Truth.About.Cheating.2016.1080p.WEB-DL.H264.AAC- 1.00GB

[复制链接]

116万

主题

116万

帖子

116万

积分

超级版主

Rank: 8Rank: 8

积分
1167997
发表于 2024-7-9 21:46:30 | 显示全部楼层 |阅读模式


[2016][欧美][其它][WEB-1080P]作弊的真相[中文字幕].The.Truth.About.Cheating.2016.1080p.WEB-DL.H264.AAC- 1.00GB

完整标题:作弊的真相[中文字幕].The.Truth.About.Cheating.2016.1080p.WEB-DL.H264.AAC-SONYHD 1.00GB
◎标  题 作弊的真相
◎片  名 The Truth About Cheating
◎年  代 2016
◎产  地 美国
◎类  别 纪录片
◎语  言 英语
◎IMDb链接 https://www.imdb.com/title//
◎豆瓣链接 https://movie.douban.com/subject/27039065/
◎片  长 51分钟
◎简  介
    揭露了美国学生各种作弊的手段,并通过访谈不同的学生去揭示其中的动机##### MediaInfo ######
General
Complete name                            : The.Truth.About.Cheating.2016.1080p.WEB-DL.H264.AAC-SONYHD.mp4
Duration                                 : 51 min 7 s
Overall bit rate                         : 2 795 kb/s
Video
ID                                       : 1
Format                                   : AVC
Format/Info                              : Advanced Video Codec
Format profile                           : High@L4
Format settings                          : CABAC / 4 Ref Frames
Format settings, CABAC                   : Yes
Format settings, Reference frames        : 4 frames
Codec ID                                 : avc1
Codec ID/Info                            : Advanced Video Coding
Duration                                 : 51 min 7 s
Bit rate                                 : 2 597 kb/s
Width                                    : 1 920 pixels
Height                                   : 1 080 pixels
Display aspect ratio                     : 16:9
Frame rate mode                          : Constant
Frame rate                               : 25.000 FPS
Color space                              : YUV
Chroma subsampling                       : 4:2:0
Bit depth                                : 8 bits
Scan type                                : Progressive
Bits/(Pixel*Frame)                       : 0.050
Stream size                              : 950 MiB (93%)
Writing library                          : BiliBili H264 Encoder v1.0
Color range                              : Limited
Color primaries                          : BT.709
Transfer characteristics                 : BT.709
Matrix coefficients                      : BT.709
Codec configuration box                  : avcC
Audio
ID                                       : 2
Format                                   : AAC LC
Format/Info                              : Advanced Audio Codec Low Complexity
Codec ID                                 : mp4a-40-2
Duration                                 : 51 min 7 s
Bit rate mode                            : Constant
Bit rate                                 : 192 kb/s
Channel(s)                               : 2 channels
Channel layout                           : L R
Sampling rate                            : 48.0 kHz
Frame rate                               : 46.875 FPS (1024 SPF)
Compression mode                         : Lossy
Stream size                              : 70.2 MiB (7%)
Default                                  : Yes
Alternate group                          : 1
部分资源为软字幕,移动端推荐播放器:MxPlayer,nPlayer,infuse ,其他播放器请自行尝试。
部分资源为软字幕,电脑端推荐播放器:PotPlayer,完美解码,KMPLAYER,其他播放器请自行尝试。
下载端推荐纯BT下载软件:qBittorrent,Bitcomet,uTorrent ,其他下载软件请自行尝试。不支持吸血迅雷。






~~~~~~~~~~~~~~~~~~~~~~~~~~~~~~~~~~~~~~~~~
[2016][欧美][其它][WEB-1080P]作弊的真相[中文字幕].The.Truth.About.Cheating.2016.1080p.WEB-DL.H264.AAC- 1.00GB

【文件列表】:


The.Truth.About.Cheating.2016.1080p.WEB-DL.H264.AAC-SONYHD.



【下载地址列表】:


游客
文件下载链接就在这里,在您回复评论成功后才能显示。
请勿回复无意义的灌水内容。


下拉页面到最底部回复或者【点击此处快捷回复】,回复后返回此处即可查看下载链接。
如您没注册本站会员,可以点击注册本站,注册后即可回复下载。



软字幕无法在截图上展现,HDR版本/杜比视界版本截图会出现颜色异常,请使用支持的设备播放!






[img][/img]






[img][/img]

(HDR版本/杜比视界版本,截图会出现颜色异常,请使用支持的设备播放)

小贴士:【影视自媒体解说文案请移步:夏至文案解说网 www.xiazhi.vip

上一篇:[更 早][其它][其它][BD-1080P]意志的胜利[简繁英字幕].The.Triumph.of.the.Will.1935.1080p.BluRay.x264.FLAC.2.0.2Audio-SONY
下一篇:[2024][大陆][剧情][WEB-4K]末路狂花钱[60帧率版本][国语音轨/中文字幕].The.Last.Frenzy.2024.60FPS.2160p.WEB-DL.H265.10bit.DTS.
回复

使用道具 举报

您需要登录后才可以回帖 登录 | 立即注册

本版积分规则

Archiver|手机版|小众纪录片影视聚合

GMT+8, 2024-7-25 03:24 , Processed in 0.084469 second(s), 12 queries , Gzip On, Redis On.

Powered by 小众纪录片影视聚合 @2010-2023

Copyright © 2010-2024, https://www.xzjlp.com/.


免责说明:本站所有内容链接、图文介绍等均来自于互联网网友分享,本站仅支持web页面展示和文字介绍,绝不提供在线观看和存储服务,也不参与录制、上传、压片。若本站收录内容无意侵犯贵司版权,请发邮件到【a885185#163.com】联系本站,我们将在第一时间删除侵权内容。谢谢!

快速回复 返回顶部 返回列表