小众纪录片影视聚合

 找回密码
 立即注册
查看: 4|回复: 0

[蓝光电影] [2012][欧美][剧情][BD-1080P]舞出我人生4[国英多音轨/简繁英字幕].Step.Up.Revolution.2012.1080p.BluRay.x265.10bit.TrueHD.7.1-P

[复制链接]

113万

主题

113万

帖子

113万

积分

超级版主

Rank: 8Rank: 8

积分
1134579
发表于 2024-7-9 21:53:41 | 显示全部楼层 |阅读模式


[2012][欧美][剧情][BD-1080P]舞出我人生4[国英多音轨/简繁英字幕].Step.Up.Revolution.2012.1080p.BluRay.x265.10bit.TrueHD.7.1-P

完整标题:舞出我人生4[国英多音轨/简繁英字幕].Step.Up.Revolution.2012.1080p.BluRay.x265.10bit.TrueHD.7.1-ParkHD 8.88GB
◎标  题 舞出我人生4
◎译  名 舞出真我4(港) / 舞力全開4(台) / Step Up 4 3D / Step up 4: Miami Heat
◎片  名 Step Up: Revolution
◎年  代 2012
◎产  地 美国
◎类  别 剧情 / 爱情 / 音乐
◎语  言 英语
◎上映日期 2012-07-27(美国)
◎IMDb评分 6.4/10 (56965人评价)
◎IMDb链接 https://www.imdb.com/title/tt1800741/
◎豆瓣评分 7.6/10 (23268人评价)
◎豆瓣链接 https://movie.douban.com/subject/5910040/
◎片  长 99分钟
◎导  演 斯科特·斯皮尔 Scott Speer
◎编  剧 杜安·阿德勒 Duane Adler
       阿曼达·布罗迪 Amanda Brody
◎演  员 瑞安·古兹曼 Ryan Guzman
       凯瑟琳·麦考米克 Kathryn McCormick
       杰西卡·瓜迪克斯 Jessica Guadix
       查德·史密斯 Chadd Smith
       史蒂芬·布斯 Stephen Boss
       莫嘉娜·斯奈普 Morgane Slemp
       梅根·布恩 Megan Boone
       克利欧佩特拉·科尔曼 Cleopatra Coleman
       米沙·加布里埃尔·汉密尔顿 Misha Gabriel Hamilton
       汤米·杜威 Tommy Dewey
       彼得·盖勒 Peter Gallagher
       亚当·G·瑟瓦尼 Adam G. Sevani
       克里斯多夫·斯科特 Christopher Scott
       Billy Bell Billy Bell
◎简  介
    影片讲述一个富商的女儿艾米莉(凯瑟琳·麦考米克 饰)前往迈阿密想要成为一名专业的舞者,她结识了一个顶尖舞蹈团的领队西恩(瑞安·古兹曼 饰),并很快坠入爱河。为了舞团的生存,他们必须拿下一个很重要的赞助项目。但是这时艾米莉的父亲横插一脚,企图改变和拆散舞团,艾米莉、西恩和舞团的其他成员必须团结起来,捍卫并且实现他们的梦想。##### MediaInfo ######
General
Unique ID                                : 18456453566565244273928510143088669358 (0xDE2956AAEDBF37B34C958CC7849B2AE)
Complete name                            : Step.Up.Revolution.2012.1080p.BluRay.x265.10bit.TrueHD.7.1-ParkHD.mkv
Duration                                 : 1 h 38 min
Overall bit rate mode                    : Variable
Overall bit rate                         : 12.9 Mb/s
Video
ID                                       : 1
Format                                   : HEVC
Format/Info                              : High Efficiency Video Coding
Format profile                           : Main [email protected]@High
Codec ID                                 : V_MPEGH/ISO/HEVC
Duration                                 : 1 h 38 min
Bit rate                                 : 7 526 kb/s
Width                                    : 1 920 pixels
Height                                   : 1 080 pixels
Display aspect ratio                     : 16:9
Frame rate mode                          : Constant
Frame rate                               : 23.976 (24000/1001) FPS
Color space                              : YUV
Chroma subsampling                       : 4:2:0
Bit depth                                : 10 bits
Bits/(Pixel*Frame)                       : 0.151
Stream size                              : 5.19 GiB (58%)
Writing library                          : x265 3.5g2b25c9ba0+45:[Windows][GCC 10.2.0][64 bit] Yuuki 10bit+8bit+12bit
Encoding settings                        : rc=crf / crf=21.4700 / qcomp=0.65 / qpstep=4 / stats-write=0 / stats-read=0 / vbv-maxrate=160000 / vbv-bufsize=160000 / vbv-init=0.9 / min-vbv-fullness=50.0 / max-vbv-fullness=80.0 / crf-max=0.0 / crf-min=0.0 / no-lossless / no-cu-lossless / aq-mode=3 / aq-strength=0.90 / cbqpoffs=-2 / crqpoffs=-2 / ipratio=1.40 / pbratio=1.20 / psy-rd=2.00 / psy-rdoq=1.00 / deblock=-1:-1 / ref=4 / limit-refs=0 / no-limit-modes / bframes=6 / b-adapt=2 / bframe-bias=0 / b-pyramid / b-intra / weightp / weightb / min-keyint=1 / max-keyint=480 / rc-lookahead=60 / gop-lookahead=0 / scenecut=40 / hist-scenecut=0 / radl=0 / max-cu-size=32 / min-cu-size=8 / me=3 / subme=7 / merange=64 / rdoq-level=2 / rd=4 / rdpenalty=2 / dynamic-rd=0.00 / no-rd-refine / ----- / no-cutree / no-sao / rect / no-amp / no-open-gop / wpp / no-pmode / no-pme / no-psnr / no-ssim / nr-intra=0 / nr-inter=0 / no-constrained-intra / no-strong-intra-smoothing / max-tu-size=32 / tu-inter-depth=3 / tu-intra-depth=3 / limit-tu=4 / qg-size=8 / qpmax=69 / qpmin=0 / ----- / cpuid=1111039 / frame-threads=5 / numa-pools=32 / log-level=2 / input-csp=1 / input-res=1920x1080 / interlace=0 / level-idc=51 / high-tier=1 / uhd-bd=0 / no-allow-non-conformance / no-repeat-headers / no-aud / no-hrd / info / hash=0 / no-temporal-layers / lookahead-slices=0 / no-splice / no-intra-refresh / no-ssim-rd / signhide / no-tskip / max-merge=3 / temporal-mvp / no-frame-dup / no-hme / no-analyze-src-pics / no-sao-non-deblock / selective-sao=0 / no-early-skip / rskip / no-fast-intra / no-tskip-fast / no-splitrd-skip / zone-count=0 / no-strict-cbr / no-rc-grain / no-const-vbv / sar=0 / overscan=0 / videoformat=5 / range=0 / colorprim=2 / transfer=2 / colormatrix=2 / chromaloc=0 / display-window=0 / cll=0,0 / min-luma=0 / max-luma=1023 / log2-max-poc-lsb=8 / vui-timing-info / vui-hrd-info / slices=1 / no-opt-qp-pps / no-opt-ref-list-length-pps / no-multi-pass-opt-rps / scenecut-bias=0.05 / hist-threshold=0.03 / no-opt-cu-delta-qp / no-aq-motion / no-hdr10 / no-hdr10-opt / no-dhdr10-opt / no-idr-recovery-sei / analysis-reuse-level=0 / analysis-save-reuse-level=0 / analysis-load-reuse-level=0 / scale-factor=0 / refine-intra=0 / refine-inter=0 / refine-mv=1 / refine-ctu-distortion=0 / no-limit-sao / ctu-info=0 / no-lowpass-dct / refine-analysis-type=0 / copy-pic=1 / max-ausize-factor=1.0 / no-dynamic-refine / no-single-sei / no-hevc-aq / no-svt / no-field / qp-adaptation-range=1.00 / scenecut-aware-qp=0conformance-window-offsets / right=0 / bottom=0 / decoder-max-rate=0 / no-vbv-live-multi-pass
Default                                  : Yes
Forced                                   : No
Audio #1
ID                                       : 2
ID in the original source medium         : 4352 (0x1100)
Format                                   : MLP FBA
Format/Info                              : Meridian Lossless Packing FBA
Commercial name                          : Dolby TrueHD
Codec ID                                 : A_TRUEHD
Duration                                 : 1 h 38 min
Bit rate mode                            : Variable
Bit rate                                 : 4 420 kb/s
Maximum bit rate                         : 7 098 kb/s
Channel(s)                               : 8 channels
Channel layout                           : L R C LFE Ls Rs Lb Rb
Sampling rate                            : 96.0 kHz
Frame rate                               : 1 200.000 FPS (80 SPF)
Compression mode                         : Lossless
Stream size                              : 3.05 GiB (34%)
Title                                    : English
Language                                 : English
Default                                  : Yes
Forced                                   : No
Original source medium                   : Blu-ray
Audio #2
ID                                       : 3
ID in the original source medium         : 4352 (0x1100)
Format                                   : AC-3
Format/Info                              : Audio Coding 3
Commercial name                          : Dolby Digital
Format settings                          : Dolby Surround EX
Codec ID                                 : A_AC3
Duration                                 : 1 h 38 min
Bit rate mode                            : Constant
Bit rate                                 : 640 kb/s
Channel(s)                               : 6 channels
Channel layout                           : L R C LFE Ls Rs
Sampling rate                            : 48.0 kHz
Frame rate                               : 31.250 FPS (1536 SPF)
Compression mode                         : Lossy
Stream size                              : 452 MiB (5%)
Title                                    : English
Language                                 : English
Service kind                             : Complete Main
Default                                  : No
Forced                                   : No
Original source medium                   : Blu-ray
Audio #3
ID                                       : 4
ID in the original source medium         : 4354 (0x1102)
Format                                   : AC-3
Format/Info                              : Audio Coding 3
Commercial name                          : Dolby Digital
Codec ID                                 : A_AC3
Duration                                 : 1 h 38 min
Bit rate mode                            : Constant
Bit rate                                 : 192 kb/s
Channel(s)                               : 2 channels
Channel layout                           : L R
Sampling rate                            : 48.0 kHz
Frame rate                               : 31.250 FPS (1536 SPF)
Compression mode                         : Lossy
Stream size                              : 135 MiB (1%)
Title                                    : Chinese
Language                                 : Chinese
Service kind                             : Complete Main
Default                                  : No
Forced                                   : No
Original source medium                   : Blu-ray
Text #1
ID                                       : 5
ID in the original source medium         : 4610 (0x1202)
Format                                   : PGS
Muxing mode                              : zlib
Codec ID                                 : S_HDMV/PGS
Codec ID/Info                            : Picture based subtitle format used on BDs/HD-DVDs
Duration                                 : 1 h 33 min
Bit rate                                 : 25.2 kb/s
Frame rate                               : 0.326 FPS
Count of elements                        : 1828
Stream size                              : 16.8 MiB (0%)
Title                                    : chs
Language                                 : Chinese
Default                                  : Yes
Forced                                   : No
Original source medium                   : Blu-ray
Text #2
ID                                       : 6
ID in the original source medium         : 4608 (0x1200)
Format                                   : PGS
Muxing mode                              : zlib
Codec ID                                 : S_HDMV/PGS
Codec ID/Info                            : Picture based subtitle format used on BDs/HD-DVDs
Duration                                 : 1 h 30 min
Bit rate                                 : 32.6 kb/s
Frame rate                               : 0.340 FPS
Count of elements                        : 1856
Stream size                              : 21.2 MiB (0%)
Title                                    : cht
Language                                 : Chinese
Default                                  : No
Forced                                   : No
Original source medium                   : Blu-ray
Text #3
ID                                       : 7
ID in the original source medium         : 4609 (0x1201)
Format                                   : PGS
Muxing mode                              : zlib
Codec ID                                 : S_HDMV/PGS
Codec ID/Info                            : Picture based subtitle format used on BDs/HD-DVDs
Duration                                 : 1 h 30 min
Bit rate                                 : 36.2 kb/s
Frame rate                               : 0.333 FPS
Count of elements                        : 1816
Stream size                              : 23.5 MiB (0%)
Title                                    : eng
Language                                 : English
Default                                  : No
Forced                                   : No
Original source medium                   : Blu-ray
Menu
00:00:00.000                             : en:Chapter 01
00:06:01.069                             : en:Chapter 02
00:11:47.957                             : en:Chapter 03
00:14:01.841                             : en:Chapter 04
00:18:33.904                             : en:Chapter 05
00:25:29.611                             : en:Chapter 06
00:34:19.557                             : en:Chapter 07
00:39:52.264                             : en:Chapter 08
00:45:51.123                             : en:Chapter 09
00:49:38.183                             : en:Chapter 10
00:56:36.684                             : en:Chapter 11
00:59:56.634                             : en:Chapter 12
01:03:38.689                             : en:Chapter 13
01:08:29.021                             : en:Chapter 14
01:11:53.434                             : en:Chapter 15
01:15:36.156                             : en:Chapter 16
01:18:11.395                             : en:Chapter 17
01:21:56.161                             : en:Chapter 18
01:25:54.566                             : en:Chapter 19
01:31:33.613                             : en:Chapter 20
部分资源为软字幕,移动端推荐播放器:MxPlayer,nPlayer,infuse ,其他播放器请自行尝试。
部分资源为软字幕,电脑端推荐播放器:PotPlayer,完美解码,KMPLAYER,其他播放器请自行尝试。
下载端推荐纯BT下载软件:qBittorrent,Bitcomet,uTorrent ,其他下载软件请自行尝试。不支持吸血迅雷。






~~~~~~~~~~~~~~~~~~~~~~~~~~~~~~~~~~~~~~~~~
[2012][欧美][剧情][BD-1080P]舞出我人生4[国英多音轨/简繁英字幕].Step.Up.Revolution.2012.1080p.BluRay.x265.10bit.TrueHD.7.1-P

【文件列表】:


Step.Up.Revolution.2012.1080p.BluRay.x265.10bit.TrueHD.7.1-ParkHD.



【下载地址列表】:


游客
文件下载链接就在这里,在您回复评论成功后才能显示。
请勿回复无意义的灌水内容。


下拉页面到最底部回复或者【点击此处快捷回复】,回复后返回此处即可查看下载链接。
如您没注册本站会员,可以点击注册本站,注册后即可回复下载。



软字幕无法在截图上展现,HDR版本/杜比视界版本截图会出现颜色异常,请使用支持的设备播放!






[img][/img]






[img][/img]

(HDR版本/杜比视界版本,截图会出现颜色异常,请使用支持的设备播放)

小贴士:【影视自媒体解说文案请移步:夏至文案解说网 www.xiazhi.vip

上一篇:[2012][欧美][剧情][BD-1080P]舞出我人生4[国英多音轨/简繁英字幕].Step.Up.Revolution.2012.1080p.BluRay.x264.TrueHD.7.1-ParkHD
下一篇:[更 早][欧美][科幻][BD-1080P]变形怪体[中文字幕].The.Blobb.1958.1080p.BluRay.Remux.AVC.LPCM2.0-ParkHD 18.72GB
回复

使用道具 举报

您需要登录后才可以回帖 登录 | 立即注册

本版积分规则

Archiver|手机版|小众纪录片影视聚合

GMT+8, 2024-7-22 06:19 , Processed in 0.091278 second(s), 13 queries , Gzip On, Redis On.

Powered by 小众纪录片影视聚合 @2010-2023

Copyright © 2010-2024, https://www.xzjlp.com/.


免责说明:本站所有内容链接、图文介绍等均来自于互联网网友分享,本站仅支持web页面展示和文字介绍,绝不提供在线观看和存储服务,也不参与录制、上传、压片。若本站收录内容无意侵犯贵司版权,请发邮件到【a885185#163.com】联系本站,我们将在第一时间删除侵权内容。谢谢!

快速回复 返回顶部 返回列表