小众纪录片影视聚合

 找回密码
 立即注册
查看: 13|回复: 0

[蓝光电影] [更 早][欧美][科幻][BD-1080P]变形怪体[中文字幕].The.Blobb.1958.1080p.BluRay.Remux.AVC.LPCM2.0-ParkHD 18.72GB

[复制链接]

116万

主题

116万

帖子

116万

积分

超级版主

Rank: 8Rank: 8

积分
1167997
发表于 2024-7-9 21:53:45 | 显示全部楼层 |阅读模式


[更 早][欧美][科幻][BD-1080P]变形怪体[中文字幕].The.Blobb.1958.1080p.BluRay.Remux.AVC.LPCM2.0-ParkHD 18.72GB

完整标题:变形怪体[中文字幕].The.Blobb.1958.1080p.BluRay.Remux.AVC.LPCM2.0-ParkHD 18.72GB
◎标  题 变形怪体
◎译  名 幽浮魔点 / 胶水怪物
◎片  名 The Blob
◎年  代 1958
◎产  地 美国
◎类  别 科幻 / 恐怖
◎语  言 英语
◎上映日期 1958-09-12
◎IMDb评分 6.3/10 (27496人评价)
◎IMDb链接 https://www.imdb.com/title/tt0051418/
◎豆瓣评分 6.3/10 (626人评价)
◎豆瓣链接 https://movie.douban.com/subject/1440617/
◎片  长 86 分钟 / USA: 82 分钟
◎导  演 小艾尔文·S·伊沃斯 Irvin S. Yeaworth Jr.
◎编  剧 Kay Linaker Kay Linaker
◎演  员 史蒂夫·麦奎因 Steve McQueen
       安妮塔·可桑 Aneta Corsaut
       Earl Rowe Earl Rowe
       John Benson John Benson
       Audrey Metcalf Audrey Metcalf
       Lee Payton Lee Payton
       奥林·霍兰德 Olin Howland
       罗伯特·菲尔兹 Robert Fields
       Jasper Deeter Jasper Deeter
       Alden 'Stephen' Chase Alden 'Stephen' Chase
       Molly Ann Bourne Molly Ann Bourne
       Vincent Barbi Vincent Barbi
       James Bonnet James Bonnet
◎简  介
    一个神秘的来自另一颗行星的怪物随着陨星落到地球上,它就象一滴巨大的果冻,附近小镇的人们不相信已经目睹怪物破坏力的一些青少年,与此同时,这只巨大的果冻怪物继续变得更大……##### MediaInfo ######
General
Unique ID                                : 108960593855642912478188439074092165361 (0x51F90C0B3CF45E2CB67F7FE969C928F1)
Complete name                            : The.Blobb.1958.1080p.BluRay.Remux.AVC.LPCM2.0-ParkHD.mkv
Duration                                 : 1 h 22 min
Overall bit rate mode                    : Variable
Overall bit rate                         : 32.3 Mb/s
Video
ID                                       : 1
ID in the original source medium         : 4113 (0x1011)
Format                                   : AVC
Format/Info                              : Advanced Video Codec
Format profile                           : [email protected]
Format settings                          : CABAC / 4 Ref Frames
Format settings, CABAC                   : Yes
Format settings, Reference frames        : 4 frames
Codec ID                                 : V_MPEG4/ISO/AVC
Duration                                 : 1 h 22 min
Bit rate mode                            : Variable
Bit rate                                 : 30.0 Mb/s
Maximum bit rate                         : 37.0 Mb/s
Width                                    : 1 920 pixels
Height                                   : 1 080 pixels
Display aspect ratio                     : 16:9
Frame rate mode                          : Constant
Frame rate                               : 23.976 (24000/1001) FPS
Color space                              : YUV
Chroma subsampling                       : 4:2:0
Bit depth                                : 8 bits
Scan type                                : Progressive
Bits/(Pixel*Frame)                       : 0.603
Stream size                              : 17.4 GiB (93%)
Default                                  : Yes
Forced                                   : No
Original source medium                   : Blu-ray
Audio
ID                                       : 2
ID in the original source medium         : 4353 (0x1101)
Format                                   : PCM
Format settings                          : Little / Signed
Codec ID                                 : A_PCM/INT/LIT
Duration                                 : 1 h 22 min
Bit rate mode                            : Constant
Bit rate                                 : 2 304 kb/s
Channel(s)                               : 2 channels
Sampling rate                            : 48.0 kHz
Frame rate                               : 200.000 FPS (240 SPF)
Bit depth                                : 24 bits
Stream size                              : 1.33 GiB (7%)
Language                                 : English
Default                                  : Yes
Forced                                   : No
Original source medium                   : Blu-ray
Text #1
ID                                       : 3
ID in the original source medium         : 4610 (0x1202)
Format                                   : PGS
Muxing mode                              : zlib
Codec ID                                 : S_HDMV/PGS
Codec ID/Info                            : Picture based subtitle format used on BDs/HD-DVDs
Duration                                 : 1 h 22 min
Bit rate                                 : 39.7 kb/s
Frame rate                               : 0.480 FPS
Count of elements                        : 2360
Stream size                              : 23.3 MiB (0%)
Language                                 : English
Default                                  : Yes
Forced                                   : No
Original source medium                   : Blu-ray
Text #2
ID                                       : 4
ID in the original source medium         : 4613 (0x1205)
Format                                   : PGS
Muxing mode                              : zlib
Codec ID                                 : S_HDMV/PGS
Codec ID/Info                            : Picture based subtitle format used on BDs/HD-DVDs
Duration                                 : 1 h 20 min
Bit rate                                 : 29.0 kb/s
Frame rate                               : 0.254 FPS
Count of elements                        : 1232
Stream size                              : 16.8 MiB (0%)
Language                                 : Chinese
Default                                  : Yes
Forced                                   : No
Original source medium                   : Blu-ray
Text #3
ID                                       : 5
ID in the original source medium         : 4614 (0x1206)
Format                                   : PGS
Muxing mode                              : zlib
Codec ID                                 : S_HDMV/PGS
Codec ID/Info                            : Picture based subtitle format used on BDs/HD-DVDs
Duration                                 : 1 h 20 min
Bit rate                                 : 29.8 kb/s
Frame rate                               : 0.254 FPS
Count of elements                        : 1232
Stream size                              : 17.2 MiB (0%)
Language                                 : Chinese
Default                                  : Yes
Forced                                   : No
Original source medium                   : Blu-ray
Menu
00:00:00.000                             : en:Chapter 01
00:02:06.918                             : en:Chapter 02
00:08:06.861                             : en:Chapter 03
00:11:56.716                             : en:Chapter 04
00:18:59.513                             : en:Chapter 05
00:23:29.533                             : en:Chapter 06
00:31:20.712                             : en:Chapter 07
00:38:43.738                             : en:Chapter 08
00:44:22.576                             : en:Chapter 09
00:51:34.216                             : en:Chapter 10
00:56:12.577                             : en:Chapter 11
01:02:11.394                             : en:Chapter 12
01:09:11.689                             : en:Chapter 13
01:12:11.160                             : en:Chapter 14
01:15:38.450                             : en:Chapter 15
部分资源为软字幕,移动端推荐播放器:MxPlayer,nPlayer,infuse ,其他播放器请自行尝试。
部分资源为软字幕,电脑端推荐播放器:PotPlayer,完美解码,KMPLAYER,其他播放器请自行尝试。
下载端推荐纯BT下载软件:qBittorrent,Bitcomet,uTorrent ,其他下载软件请自行尝试。不支持吸血迅雷。






~~~~~~~~~~~~~~~~~~~~~~~~~~~~~~~~~~~~~~~~~
[更 早][欧美][科幻][BD-1080P]变形怪体[中文字幕].The.Blobb.1958.1080p.BluRay.Remux.AVC.LPCM2.0-ParkHD 18.72GB

【文件列表】:


The.Blobb.1958.1080p.BluRay.Remux.AVC.LPCM2.0-ParkHD.



【下载地址列表】:


游客
文件下载链接就在这里,在您回复评论成功后才能显示。
请勿回复无意义的灌水内容。


下拉页面到最底部回复或者【点击此处快捷回复】,回复后返回此处即可查看下载链接。
如您没注册本站会员,可以点击注册本站,注册后即可回复下载。



软字幕无法在截图上展现,HDR版本/杜比视界版本截图会出现颜色异常,请使用支持的设备播放!






[img][/img]






[img][/img]

(HDR版本/杜比视界版本,截图会出现颜色异常,请使用支持的设备播放)

小贴士:【影视自媒体解说文案请移步:夏至文案解说网 www.xiazhi.vip

上一篇:[2012][欧美][剧情][BD-1080P]舞出我人生4[国英多音轨/简繁英字幕].Step.Up.Revolution.2012.1080p.BluRay.x265.10bit.TrueHD.7.1-P
下一篇:[更 早][欧美][科幻][BD-1080P]变形怪体[简繁英字幕].The.Blobb.1958.1080p.BluRay.x264.DD2.0-ParkHD 6.54GB
回复

使用道具 举报

您需要登录后才可以回帖 登录 | 立即注册

本版积分规则

Archiver|手机版|小众纪录片影视聚合

GMT+8, 2024-7-25 03:15 , Processed in 0.098637 second(s), 12 queries , Gzip On, Redis On.

Powered by 小众纪录片影视聚合 @2010-2023

Copyright © 2010-2024, https://www.xzjlp.com/.


免责说明:本站所有内容链接、图文介绍等均来自于互联网网友分享,本站仅支持web页面展示和文字介绍,绝不提供在线观看和存储服务,也不参与录制、上传、压片。若本站收录内容无意侵犯贵司版权,请发邮件到【a885185#163.com】联系本站,我们将在第一时间删除侵权内容。谢谢!

快速回复 返回顶部 返回列表