小众纪录片影视聚合

 找回密码
 立即注册
查看: 7|回复: 0

[蓝光电影] [更 早][日本][剧情][BD-1080P]白色巨塔[简繁双语字幕].The.Great.White.Tower.1966.JPN.BluRay.Remux.AVC.1080p.LPCM2.0-Dream

[复制链接]

112万

主题

112万

帖子

112万

积分

超级版主

Rank: 8Rank: 8

积分
1128817
发表于 7 天前 | 显示全部楼层 |阅读模式


[更 早][日本][剧情][BD-1080P]白色巨塔[简繁双语字幕].The.Great.White.Tower.1966.JPN.BluRay.Remux.AVC.1080p.LPCM2.0-Dream

完整标题:白色巨塔[简繁双语字幕].The.Great.White.Tower.1966.JPN.BluRay.Remux.AVC.1080p.LPCM2.0-DreamHD 40.48GB
◎标  题 白色巨塔
◎译  名 The Great White Tower / The Ivory Tower
◎片  名 白い巨塔
◎年  代 1966
◎产  地 日本
◎类  别 剧情
◎语  言 日语
◎上映日期 1966-10-15(日本)
◎IMDb评分 7.5/10 (249人评价)
◎IMDb链接 https://www.imdb.com/title/tt0327147/
◎豆瓣评分 8.5/10 (1545人评价)
◎豆瓣链接 https://movie.douban.com/subject/2156806/
◎片  长 150分钟
◎导  演 山本萨夫 Satsuo Yamamoto
◎编  剧 桥本忍 Shinobu Hashimoto
       山崎丰子 Toyoko Yamasaki
◎演  员 田宫二郎 Jiro Tamiya
       东野英治郎 Eijirô Tôno
       田村高广 Takahiro Tamura
       小泽荣太郎 Eitarô Ozawa
       船越英二 Eiji Funakoshi
       泷泽修 Osamu Takizawa
       藤村志保 Shiho Fujimura
       小川真由美 Mayumi Ogawa
       岸辉子 Teruko Kishi
       加藤嘉 Yoshi Katô
       清水将夫 Masao Shimizu
       石山健二郎 Ishiyama Kenjiro
       加藤武 Takeshi Katô
       下条正巳 Masami Shimojô
       铃木瑞穗 Mizuho Suzuki
       早川雄三 Yuzo Hayakawa
       高原骏雄 Toshio Takahara
       潮万太郎 Mantarô Ushio
       北原义郎 Yoshirô Kitahara
       長谷川待子 Machiko Hasegawa
       泷花久子 Hisako Takihana
       村田扶实子 Fumiko Murata
       竹村洋介 Yosuke Takemura
       南方伸夫 Nobuo Minakata
       阿井美千子 Michiko Ai
       岡崎夏子 Natsuko Okazaki
       须贺不二男 Fujio Suga
◎简  介
    浪速大学医学部第一外科的东贞藏教授(东野英治郎 饰)退休在即,拥有出色手术技巧且在医护工作者中享有极高人气的副教授财前五郎(田宫二郎 饰)是下一任教授的最有力候选人。出身贫寒的财前对名利有着超乎常人的野心,却也因此招至了东教授的不满。为了阻挡财前的步伐,东策划在全国范围内选拔继任者。感受到莫大压力的财前,在岳父财前又一(石山健二郎 饰)及大阪市北区医师会强大财力支持下,火力全开对教授职位进行搏命狙击。与此同时,一名胃癌患者交到财前手中。但是热衷名利之争的财前罔顾同期里见修二(田村高广 饰)的建议,自顾自进行了手术,最终将自己卷入医疗事故的漩涡之中……                                    本片根据山崎丰子的同名原作改编。##### MediaInfo ######
General
Unique ID                                : 178387733300436333542390237235626401902 (0x86343A4C58E90F4336BDFE7F0F7C606E)
Complete name                            : The Great White Tower 1966 JPN BluRay Remux AVC 1080p LPCM2.0-DreamHD.mkv
Duration                                 : 2 h 29 min
Overall bit rate mode                    : Variable
Overall bit rate                         : 38.7 Mb/s
Video
ID                                       : 1
Format                                   : AVC
Format/Info                              : Advanced Video Codec
Format profile                           : [email protected]
Format settings                          : CABAC / 4 Ref Frames
Format settings, CABAC                   : Yes
Format settings, Reference frames        : 4 frames
Codec ID                                 : V_MPEG4/ISO/AVC
Duration                                 : 2 h 29 min
Bit rate mode                            : Variable
Bit rate                                 : 35.9 Mb/s
Maximum bit rate                         : 40.0 Mb/s
Width                                    : 1 920 pixels
Height                                   : 1 080 pixels
Display aspect ratio                     : 16:9
Frame rate mode                          : Constant
Frame rate                               : 23.976 (24000/1001) FPS
Color space                              : YUV
Chroma subsampling                       : 4:2:0
Bit depth                                : 8 bits
Scan type                                : Progressive
Bits/(Pixel*Frame)                       : 0.722
Stream size                              : 37.5 GiB (93%)
Default                                  : Yes
Forced                                   : No
Color range                              : Limited
Color primaries                          : BT.709
Transfer characteristics                 : BT.709
Matrix coefficients                      : BT.709
Audio
ID                                       : 2
Format                                   : PCM
Format settings                          : Little / Signed
Codec ID                                 : A_PCM/INT/LIT
Duration                                 : 2 h 29 min
Bit rate mode                            : Constant
Bit rate                                 : 2 304 kb/s
Channel(s)                               : 2 channels
Sampling rate                            : 48.0 kHz
Frame rate                               : 200.000 FPS (240 SPF)
Bit depth                                : 24 bits
Stream size                              : 2.41 GiB (6%)
Language                                 : Japanese
Default                                  : Yes
Forced                                   : No
Text #1
ID                                       : 3
Format                                   : PGS
Codec ID                                 : S_HDMV/PGS
Codec ID/Info                            : Picture based subtitle format used on BDs/HD-DVDs
Duration                                 : 2 h 27 min
Bit rate                                 : 310 kb/s
Frame rate                               : 1.545 FPS
Count of elements                        : 13665
Stream size                              : 326 MiB (1%)
Language                                 : Japanese
Default                                  : Yes
Forced                                   : No
Text #2
ID                                       : 4
Format                                   : PGS
Codec ID                                 : S_HDMV/PGS
Codec ID/Info                            : Picture based subtitle format used on BDs/HD-DVDs
Duration                                 : 2 h 28 min
Bit rate                                 : 35.2 kb/s
Frame rate                               : 0.421 FPS
Count of elements                        : 3748
Stream size                              : 37.4 MiB (0%)
Title                                    : 简体字幕
Language                                 : Chinese
Default                                  : Yes
Forced                                   : No
Text #3
ID                                       : 5
Format                                   : PGS
Codec ID                                 : S_HDMV/PGS
Codec ID/Info                            : Picture based subtitle format used on BDs/HD-DVDs
Duration                                 : 2 h 28 min
Bit rate                                 : 37.0 kb/s
Frame rate                               : 0.421 FPS
Count of elements                        : 3748
Stream size                              : 39.3 MiB (0%)
Title                                    : 繁体字幕
Language                                 : Chinese
Default                                  : Yes
Forced                                   : No
Text #4
ID                                       : 6
Format                                   : PGS
Codec ID                                 : S_HDMV/PGS
Codec ID/Info                            : Picture based subtitle format used on BDs/HD-DVDs
Duration                                 : 2 h 28 min
Bit rate                                 : 62.0 kb/s
Frame rate                               : 0.421 FPS
Count of elements                        : 3748
Stream size                              : 65.9 MiB (0%)
Title                                    : 简日双语字幕
Language                                 : Chinese
Default                                  : Yes
Forced                                   : No
Text #5
ID                                       : 7
Format                                   : PGS
Codec ID                                 : S_HDMV/PGS
Codec ID/Info                            : Picture based subtitle format used on BDs/HD-DVDs
Duration                                 : 2 h 28 min
Bit rate                                 : 63.7 kb/s
Frame rate                               : 0.421 FPS
Count of elements                        : 3748
Stream size                              : 67.7 MiB (0%)
Title                                    : 繁日双语字幕
Language                                 : Chinese
Default                                  : Yes
Forced                                   : No
Menu
00:00:00.000                             : en:第 01 章
00:03:53.566                             : en:第 02 章
00:15:58.624                             : en:第 03 章
00:21:40.590                             : en:第 04 章
00:25:05.462                             : en:第 05 章
00:30:31.246                             : en:第 06 章
00:35:40.972                             : en:第 07 章
00:39:52.223                             : en:第 08 章
00:42:56.198                             : en:第 09 章
00:45:08.122                             : en:第 10 章
00:49:39.559                             : en:第 11 章
00:53:30.999                             : en:第 12 章
00:57:04.838                             : en:第 13 章
01:04:24.151                             : en:第 14 章
01:07:37.178                             : en:第 15 章
01:11:58.022                             : en:第 16 章
01:12:44.276                             : en:第 17 章
01:17:28.602                             : en:第 18 章
01:22:38.244                             : en:第 19 章
01:27:10.433                             : en:第 20 章
01:32:24.330                             : en:第 21 章
01:38:42.541                             : en:第 22 章
01:40:40.659                             : en:第 23 章
01:49:06.665                             : en:第 24 章
01:55:03.605                             : en:第 25 章
01:59:24.866                             : en:第 26 章
02:02:41.228                             : en:第 27 章
02:13:21.993                             : en:第 28 章
02:17:39.960                             : en:第 29 章
02:26:18.519                             : en:第 30 章
部分资源为软字幕,移动端推荐播放器:MxPlayer,nPlayer,infuse ,其他播放器请自行尝试。
部分资源为软字幕,电脑端推荐播放器:PotPlayer,完美解码,KMPLAYER,其他播放器请自行尝试。
下载端推荐纯BT下载软件:qBittorrent,Bitcomet,uTorrent ,其他下载软件请自行尝试。不支持吸血迅雷。






~~~~~~~~~~~~~~~~~~~~~~~~~~~~~~~~~~~~~~~~~
[更 早][日本][剧情][BD-1080P]白色巨塔[简繁双语字幕].The.Great.White.Tower.1966.JPN.BluRay.Remux.AVC.1080p.LPCM2.0-Dream

【文件列表】:


The.Great.White.Tower.1966.JPN.BluRay.Remux.AVC.1080p.LPCM2.0-DreamHD.



【下载地址列表】:


游客
文件下载链接就在这里,在您回复评论成功后才能显示。
请勿回复无意义的灌水内容。


下拉页面到最底部回复或者【点击此处快捷回复】,回复后返回此处即可查看下载链接。
如您没注册本站会员,可以点击注册本站,注册后即可回复下载。



软字幕无法在截图上展现,HDR版本/杜比视界版本截图会出现颜色异常,请使用支持的设备播放!






[img][/img]






[img][/img]

(HDR版本/杜比视界版本,截图会出现颜色异常,请使用支持的设备播放)

小贴士:【影视自媒体解说文案请移步:夏至文案解说网 www.xiazhi.vip

上一篇:[2022][欧美][动作][BD-4K]355[中文字幕].The.355.2022.UHD.BluRay.REMUX.2160p.HEVC.Atmos.TrueHD7.1- 41.56
下一篇:[更 早][其它][剧情][BD-1080P]纳瓦隆大炮[国语配音/中文字幕].The.Guns.of.Navarone.1961.JPN.BluRay.Remux.AVC.1080p.DTS-HDMA5.
回复

使用道具 举报

您需要登录后才可以回帖 登录 | 立即注册

本版积分规则

Archiver|手机版|小众纪录片影视聚合

GMT+8, 2024-7-16 23:25 , Processed in 0.075882 second(s), 11 queries , Gzip On, Redis On.

Powered by 小众纪录片影视聚合 @2010-2023

Copyright © 2010-2024, https://www.xzjlp.com/.


免责说明:本站所有内容链接、图文介绍等均来自于互联网网友分享,本站仅支持web页面展示和文字介绍,绝不提供在线观看和存储服务,也不参与录制、上传、压片。若本站收录内容无意侵犯贵司版权,请发邮件到【a885185#163.com】联系本站,我们将在第一时间删除侵权内容。谢谢!

快速回复 返回顶部 返回列表