小众纪录片影视聚合

 找回密码
 立即注册
查看: 12|回复: 0

[蓝光电影] [更 早][其它][剧情][BD-1080P]纳瓦隆大炮[国语配音/中文字幕].The.Guns.of.Navarone.1961.JPN.BluRay.Remux.AVC.1080p.DTS-HDMA5.

[复制链接]

116万

主题

116万

帖子

116万

积分

超级版主

Rank: 8Rank: 8

积分
1167997
发表于 2024-7-9 21:54:11 | 显示全部楼层 |阅读模式


[更 早][其它][剧情][BD-1080P]纳瓦隆大炮[国语配音/中文字幕].The.Guns.of.Navarone.1961.JPN.BluRay.Remux.AVC.1080p.DTS-HDMA5.

完整标题:纳瓦隆大炮[国语配音/中文字幕].The.Guns.of.Navarone.1961.JPN.BluRay.Remux.AVC.1080p.DTS-HDMA5.1-DreamHD 28.91GB
◎标  题 纳瓦隆大炮
◎译  名 六壮士(港 / 台)
◎片  名 The Guns of Navarone
◎年  代 1961
◎产  地 英国 / 美国
◎类  别 剧情 / 动作 / 战争 / 冒险
◎语  言 英语 / 希腊语 / 德语
◎上映日期 1961-04-27
◎IMDb评分 7.5/10 (52677人评价)
◎IMDb链接 https://www.imdb.com/title/tt0054953/
◎豆瓣评分 7.6/10 (1560人评价)
◎豆瓣链接 https://movie.douban.com/subject/1298721/
◎片  长 158分钟
◎导  演 J·李·汤普森 J. Lee Thompson
       亚历山大·麦肯德里克 Alexander Mackendrick
◎编  剧 阿利斯泰尔·麦克林 Alistair MacLean
       卡尔·福尔曼 Carl Foreman
◎演  员 格利高里·派克 Gregory Peck
       大卫·尼文 David Niven
       安东尼·奎恩 Anthony Quinn
       斯坦利·贝克 Stanley Baker
       安东尼·奎尔 Anthony Quayle
       詹姆斯·达伦 James Darren
       艾琳·帕帕斯 Irene Papas
       阿尔贝特·利文 Albert Lieven
       沃尔特·戈塔尔 Walter Gotell
       珀西·赫伯特 Percy Herbert
       Tutte Lemkow Tutte Lemkow
       Rosemary Nicols Rosemary Nicols
       Christopher Rhodes Christopher Rhodes
       鲍勃·西蒙斯 Bob Simmons
       Michael Trubshawe Michael Trubshawe
       诺曼·伍德兰 Norman Wooland
       乔治·迈克尔 George Mikell
       Wolf Frees Wolf Frees
       卡罗尔·杜瑞 Carl Duering
       艾伦·卡思伯森 Allan Cuthbertson
       布莱恩·福布斯 Bryan Forbes
       詹姆斯·罗伯逊·贾斯蒂 James Robertson Justice
       Peter Grant Peter Grant
       迈克尔·萨恩 Michael Sarne
       理查德·哈里斯 Richard Harris
       吉娅·斯卡拉 Gia Scala
       Victor Beaumont Victor Beaumont
       维克多·布鲁诺 Victor Buono
◎简  介
    纳粹军队在爱琴海上的某希腊小岛上,安装了两支火力超强的巨炮,威协到邻近岛屿英军的安危,于是六名同盟国与希腊士兵受英国之命,在军官法兰克林少校的带领下潜入该岛,与岛上游击队会合后,执行摧毁巨炮的任务。但是,当法兰克林少校在任务中受伤后,凯西上校因为经验不足而坏了大事。不久后,他们发觉小队中有叛徒,导致凯西上校、爆破专家米勒下士与希腊游击队员安德瑞亚之间起了嫌隙。这六名壮士是否能完成这项艰巨的任务呢?##### MediaInfo ######
General
Unique ID                                : 232631062623814813880307136196704451090 (0xAF031CEA4D9CE112539CEC61CE1BBA12)
Complete name                            : The Guns of Navarone 1961 JPN BluRay Remux AVC 1080p DTS-HDMA5.1-DreamHD.mkv
Duration                                 : 2 h 36 min
Overall bit rate mode                    : Variable
Overall bit rate                         : 26.5 Mb/s
Video
ID                                       : 1
Format                                   : AVC
Format/Info                              : Advanced Video Codec
Format profile                           : [email protected]
Format settings                          : CABAC / 2 Ref Frames
Format settings, CABAC                   : Yes
Format settings, Reference frames        : 2 frames
Format settings, GOP                     : M=1, N=10
Codec ID                                 : V_MPEG4/ISO/AVC
Duration                                 : 2 h 36 min
Bit rate mode                            : Variable
Bit rate                                 : 23.7 Mb/s
Width                                    : 1 920 pixels
Height                                   : 1 080 pixels
Display aspect ratio                     : 16:9
Frame rate mode                          : Constant
Frame rate                               : 23.976 (24000/1001) FPS
Color space                              : YUV
Chroma subsampling                       : 4:2:0
Bit depth                                : 8 bits
Scan type                                : Progressive
Bits/(Pixel*Frame)                       : 0.477
Stream size                              : 25.9 GiB (90%)
Default                                  : Yes
Forced                                   : No
Audio
ID                                       : 2
Format                                   : DTS XLL
Format/Info                              : Digital Theater Systems
Commercial name                          : DTS-HD Master Audio
Codec ID                                 : A_DTS
Duration                                 : 2 h 36 min
Bit rate mode                            : Variable
Bit rate                                 : 2 109 kb/s
Channel(s)                               : 6 channels
Channel layout                           : C L R Ls Rs LFE
Sampling rate                            : 48.0 kHz
Frame rate                               : 93.750 FPS (512 SPF)
Bit depth                                : 16 bits
Compression mode                         : Lossless
Stream size                              : 2.30 GiB (8%)
Language                                 : English
Default                                  : Yes
Forced                                   : No
Text #1
ID                                       : 3
Format                                   : PGS
Codec ID                                 : S_HDMV/PGS
Codec ID/Info                            : Picture based subtitle format used on BDs/HD-DVDs
Duration                                 : 2 h 34 min
Bit rate                                 : 556 kb/s
Frame rate                               : 2.615 FPS
Count of elements                        : 24181
Stream size                              : 613 MiB (2%)
Language                                 : English
Default                                  : Yes
Forced                                   : No
Text #2
ID                                       : 4
Format                                   : PGS
Codec ID                                 : S_HDMV/PGS
Codec ID/Info                            : Picture based subtitle format used on BDs/HD-DVDs
Duration                                 : 2 h 34 min
Bit rate                                 : 13.5 kb/s
Frame rate                               : 0.200 FPS
Count of elements                        : 1852
Stream size                              : 14.9 MiB (0%)
Language                                 : Japanese
Default                                  : Yes
Forced                                   : No
Text #3
ID                                       : 5
Format                                   : PGS
Codec ID                                 : S_HDMV/PGS
Codec ID/Info                            : Picture based subtitle format used on BDs/HD-DVDs
Duration                                 : 2 h 34 min
Bit rate                                 : 12.4 kb/s
Frame rate                               : 0.223 FPS
Count of elements                        : 2068
Stream size                              : 13.7 MiB (0%)
Title                                    : 简体中文(黑边)
Language                                 : Chinese
Default                                  : Yes
Forced                                   : No
Text #4
ID                                       : 6
Format                                   : PGS
Codec ID                                 : S_HDMV/PGS
Codec ID/Info                            : Picture based subtitle format used on BDs/HD-DVDs
Duration                                 : 2 h 34 min
Bit rate                                 : 12.8 kb/s
Frame rate                               : 0.223 FPS
Count of elements                        : 2068
Stream size                              : 14.2 MiB (0%)
Title                                    : 繁体中文(黑边)
Language                                 : Chinese
Default                                  : Yes
Forced                                   : No
Text #5
ID                                       : 7
Format                                   : PGS
Codec ID                                 : S_HDMV/PGS
Codec ID/Info                            : Picture based subtitle format used on BDs/HD-DVDs
Duration                                 : 2 h 34 min
Bit rate                                 : 23.7 kb/s
Frame rate                               : 0.223 FPS
Count of elements                        : 2068
Stream size                              : 26.2 MiB (0%)
Title                                    : 简英双语(黑边)
Language                                 : Chinese
Default                                  : Yes
Forced                                   : No
Text #6
ID                                       : 8
Format                                   : PGS
Codec ID                                 : S_HDMV/PGS
Codec ID/Info                            : Picture based subtitle format used on BDs/HD-DVDs
Duration                                 : 2 h 34 min
Bit rate                                 : 24.1 kb/s
Frame rate                               : 0.223 FPS
Count of elements                        : 2068
Stream size                              : 26.7 MiB (0%)
Title                                    : 繁英双语(黑边)
Language                                 : Chinese
Default                                  : Yes
Forced                                   : No
Menu
00:00:00.000                             : en:第 01 章
00:12:57.610                             : en:第 02 章
00:17:57.076                             : en:第 03 章
00:24:11.408                             : en:第 04 章
00:32:43.920                             : en:第 05 章
00:46:16.857                             : en:第 06 章
00:59:17.262                             : en:第 07 章
01:05:08.863                             : en:第 08 章
01:13:27.653                             : en:第 09 章
01:21:01.481                             : en:第 10 章
01:29:46.464                             : en:第 11 章
01:38:32.239                             : en:第 12 章
01:51:56.126                             : en:第 13 章
02:08:41.213                             : en:第 14 章
02:17:32.577                             : en:第 15 章
02:28:01.205                             : en:第 16 章
部分资源为软字幕,移动端推荐播放器:MxPlayer,nPlayer,infuse ,其他播放器请自行尝试。
部分资源为软字幕,电脑端推荐播放器:PotPlayer,完美解码,KMPLAYER,其他播放器请自行尝试。
下载端推荐纯BT下载软件:qBittorrent,Bitcomet,uTorrent ,其他下载软件请自行尝试。不支持吸血迅雷。






~~~~~~~~~~~~~~~~~~~~~~~~~~~~~~~~~~~~~~~~~
[更 早][其它][剧情][BD-1080P]纳瓦隆大炮[国语配音/中文字幕].The.Guns.of.Navarone.1961.JPN.BluRay.Remux.AVC.1080p.DTS-HDMA5.

【文件列表】:


The.Guns.of.Navarone.1961.JPN.BluRay.Remux.AVC.1080p.DTS-HDMA5.1-DreamHD.



【下载地址列表】:


游客
文件下载链接就在这里,在您回复评论成功后才能显示。
请勿回复无意义的灌水内容。


下拉页面到最底部回复或者【点击此处快捷回复】,回复后返回此处即可查看下载链接。
如您没注册本站会员,可以点击注册本站,注册后即可回复下载。



软字幕无法在截图上展现,HDR版本/杜比视界版本截图会出现颜色异常,请使用支持的设备播放!






[img][/img]






[img][/img]

(HDR版本/杜比视界版本,截图会出现颜色异常,请使用支持的设备播放)

小贴士:【影视自媒体解说文案请移步:夏至文案解说网 www.xiazhi.vip

上一篇:[更 早][日本][剧情][BD-1080P]白色巨塔[简繁双语字幕].The.Great.White.Tower.1966.JPN.BluRay.Remux.AVC.1080p.LPCM2.0-Dream
下一篇:[更 早][日本][剧情][BD-4K]犬神家族[中文字幕].The.Inugami.Family.1976.UHD.BluRay.REMUX.2160p.HEVC.HDR.LPCM2.0-Dream
回复

使用道具 举报

您需要登录后才可以回帖 登录 | 立即注册

本版积分规则

Archiver|手机版|小众纪录片影视聚合

GMT+8, 2024-7-25 03:18 , Processed in 0.212670 second(s), 12 queries , Gzip On, Redis On.

Powered by 小众纪录片影视聚合 @2010-2023

Copyright © 2010-2024, https://www.xzjlp.com/.


免责说明:本站所有内容链接、图文介绍等均来自于互联网网友分享,本站仅支持web页面展示和文字介绍,绝不提供在线观看和存储服务,也不参与录制、上传、压片。若本站收录内容无意侵犯贵司版权,请发邮件到【a885185#163.com】联系本站,我们将在第一时间删除侵权内容。谢谢!

快速回复 返回顶部 返回列表