小众纪录片影视聚合

 找回密码
 立即注册
查看: 14|回复: 0

[蓝光电影] [2022][欧美][喜剧][BD-1080P]迷失之城[国英多音轨/中文字幕/特效字幕].2022.V3.BluRay.REMUX.1080p.AVC.Atmos.TrueHD7.1.3Audio-Drea

[复制链接]

116万

主题

116万

帖子

116万

积分

超级版主

Rank: 8Rank: 8

积分
1167997
发表于 2024-7-9 21:54:18 | 显示全部楼层 |阅读模式


[2022][欧美][喜剧][BD-1080P]迷失之城[国英多音轨/中文字幕/特效字幕].2022.V3.BluRay.REMUX.1080p.AVC.Atmos.TrueHD7.1.3Audio-Drea

完整标题:迷失之城[国英多音轨/中文字幕/特效字幕].2022.V3.BluRay.REMUX.1080p.AVC.Atmos.TrueHD7.1.3Audio-DreamHD 30.20GB
◎标  题 迷失之城
◎译  名 迷失D城 / Lost City of D / 失惊无神闯谜城(港) / 失落谜城(台)
◎片  名 The Lost City
◎年  代 2022
◎产  地 美国
◎类  别 喜剧 / 动作 / 冒险
◎语  言 英语
◎上映日期 2022-07-29(中国大陆) / 2022-03-25(美国)
◎IMDb评分 6.1/10 (134997人评价)
◎IMDb链接 https://www.imdb.com/title/tt13320622/
◎豆瓣评分 5.3/10 (18657人评价)
◎豆瓣链接 https://movie.douban.com/subject/35303842/
◎片  长 112分钟 / 110分钟(中国大陆)
◎导  演 艾伦·尼 Aaron Nee
       亚当·尼 Adam Nee
◎编  剧 奥伦·尤济尔 Oren Uziel
       达纳·福克斯 Dana Fox
       亚当·尼 Adam Nee
       艾伦·尼 Aaron Nee
       赛斯·戈登 Seth Gordon
◎演  员 桑德拉·布洛克 Sandra Bullock
       查宁·塔图姆 Channing Tatum
       丹尼尔·雷德克里夫 Daniel Radcliffe
       达明·乔伊·伦道夫 Da'Vine Joy Randolph
       布拉德·皮特 Brad Pitt
       奥斯卡·努内斯 Oscar Nuñez
       帕蒂·哈里森 Patti Harrison
       杨伯文 Bowen Yang
       乔安·普林格尔 Joan Pringle
       赫克托·阿尼巴尔 Héctor Aníbal
       托马斯·福布斯·约翰逊 Thomas Forbes-Johnson
       斯莱·刘易斯 Sli Lewis
       亚当·尼 Adam Nee
       雷蒙德·李 Raymond Lee
       安东尼·阿尔瓦雷斯 Anthony Alvarez
       马西·哈罗 Marcy Jarreau
       瑞恩·贾德 Ryan Judd
◎简  介
    洛蕾塔·塞琪(桑德拉·布洛克 饰)是一位才华横溢但与世隔绝的作家。在她的畅销爱情冒险小说里,总会出现许多奇异的地方。而作为本书的封面模特,艾伦(查宁·塔图姆 饰)一生都在致力于展现书中英雄角色“达什”的个人魅力。 ” 在与艾伦一起宣传新书时,洛雷塔被一位古怪的亿万富翁(丹尼尔·雷德克里夫 饰)绑架。这位亿万富翁坚信,洛蕾塔的新书能带领他找到失落古城中的宝藏。 与此同时,艾伦为了证明自己可以成为现实中的英雄,而不仅仅是洛蕾塔虚构的人物,决定前去营救她。这对极不对付的搭档需要共同努力,才能在险恶的丛林中生存下来,并在亿万富翁赶到前找到古老的宝藏。##### MediaInfo ######
General
Unique ID                                : 93769020398481371644669853358776707280 (0x468B41A503012B0EBC027F1A97ECE8D0)
Complete name                            : The Lost City 2022 V3 BluRay REMUX 1080p AVC Atmos TrueHD7.1 3Audio-DreamHD.mkv
Duration                                 : 1 h 51 min
Overall bit rate mode                    : Variable
Overall bit rate                         : 38.7 Mb/s
Video
ID                                       : 1
ID in the original source medium         : 4113 (0x1011)
Format                                   : AVC
Format/Info                              : Advanced Video Codec
Format profile                           : [email protected]
Format settings                          : CABAC / 4 Ref Frames
Format settings, CABAC                   : Yes
Format settings, Reference frames        : 4 frames
Codec ID                                 : V_MPEG4/ISO/AVC
Duration                                 : 1 h 51 min
Bit rate mode                            : Variable
Bit rate                                 : 29.1 Mb/s
Maximum bit rate                         : 32.3 Mb/s
Width                                    : 1 920 pixels
Height                                   : 1 080 pixels
Display aspect ratio                     : 16:9
Frame rate mode                          : Constant
Frame rate                               : 23.976 (24000/1001) FPS
Color space                              : YUV
Chroma subsampling                       : 4:2:0
Bit depth                                : 8 bits
Scan type                                : Progressive
Bits/(Pixel*Frame)                       : 0.586
Stream size                              : 22.7 GiB (75%)
Default                                  : Yes
Forced                                   : No
Original source medium                   : Blu-ray
Audio #1
ID                                       : 2
ID in the original source medium         : 4352 (0x1100)
Format                                   : MLP FBA 16-ch
Format/Info                              : Meridian Lossless Packing FBA with 16-channel presentation
Commercial name                          : Dolby TrueHD with Dolby Atmos
Codec ID                                 : A_TRUEHD
Duration                                 : 1 h 51 min
Bit rate mode                            : Variable
Bit rate                                 : 3 897 kb/s
Maximum bit rate                         : 6 855 kb/s
Channel(s)                               : 8 channels
Channel layout                           : L R C LFE Ls Rs Lb Rb
Sampling rate                            : 48.0 kHz
Frame rate                               : 1 200.000 FPS (40 SPF)
Compression mode                         : Lossless
Stream size                              : 3.04 GiB (10%)
Language                                 : English
Default                                  : Yes
Forced                                   : No
Original source medium                   : Blu-ray
Number of dynamic objects                : 11
Bed channel count                        : 1 channel
Bed channel configuration                : LFE
Audio #2
ID                                       : 3
ID in the original source medium         : 4361 (0x1109)
Format                                   : DTS XLL
Format/Info                              : Digital Theater Systems
Commercial name                          : DTS-HD Master Audio
Codec ID                                 : A_DTS
Duration                                 : 1 h 51 min
Bit rate mode                            : Variable
Bit rate                                 : 4 712 kb/s
Channel(s)                               : 8 channels
Channel layout                           : C L R LFE Lb Rb Lss Rss
Sampling rate                            : 48.0 kHz
Frame rate                               : 93.750 FPS (512 SPF)
Bit depth                                : 24 bits
Compression mode                         : Lossless
Stream size                              : 3.68 GiB (12%)
Language                                 : Chinese
Default                                  : Yes
Forced                                   : No
Original source medium                   : Blu-ray
Audio #3
ID                                       : 4
ID in the original source medium         : 4362 (0x110A)
Format                                   : AC-3
Format/Info                              : Audio Coding 3
Commercial name                          : Dolby Digital
Codec ID                                 : A_AC3
Duration                                 : 1 h 51 min
Bit rate mode                            : Constant
Bit rate                                 : 640 kb/s
Channel(s)                               : 6 channels
Channel layout                           : L R C LFE Ls Rs
Sampling rate                            : 48.0 kHz
Frame rate                               : 31.250 FPS (1536 SPF)
Compression mode                         : Lossy
Stream size                              : 512 MiB (2%)
Language                                 : Chinese
Service kind                             : Complete Main
Default                                  : Yes
Forced                                   : No
Original source medium                   : Blu-ray
Text #1
ID                                       : 5
ID in the original source medium         : 4609 (0x1201)
Format                                   : PGS
Muxing mode                              : zlib
Codec ID                                 : S_HDMV/PGS
Codec ID/Info                            : Picture based subtitle format used on BDs/HD-DVDs
Duration                                 : 1 h 45 min
Bit rate                                 : 58.9 kb/s
Frame rate                               : 0.605 FPS
Count of elements                        : 3816
Stream size                              : 44.3 MiB (0%)
Language                                 : English
Default                                  : Yes
Forced                                   : No
Original source medium                   : Blu-ray
Text #2
ID                                       : 6
ID in the original source medium         : 4610 (0x1202)
Format                                   : PGS
Muxing mode                              : zlib
Codec ID                                 : S_HDMV/PGS
Codec ID/Info                            : Picture based subtitle format used on BDs/HD-DVDs
Duration                                 : 1 h 51 min
Bit rate                                 : 39.1 kb/s
Frame rate                               : 0.498 FPS
Count of elements                        : 3322
Stream size                              : 31.0 MiB (0%)
Language                                 : Chinese
Default                                  : Yes
Forced                                   : No
Original source medium                   : Blu-ray
Text #3
ID                                       : 7
ID in the original source medium         : 4619 (0x120B)
Format                                   : PGS
Muxing mode                              : zlib
Codec ID                                 : S_HDMV/PGS
Codec ID/Info                            : Picture based subtitle format used on BDs/HD-DVDs
Duration                                 : 1 h 51 min
Bit rate                                 : 33.6 kb/s
Frame rate                               : 0.488 FPS
Count of elements                        : 3254
Stream size                              : 26.7 MiB (0%)
Language                                 : Chinese
Default                                  : Yes
Forced                                   : No
Original source medium                   : Blu-ray
Text #4
ID                                       : 8
ID in the original source medium         : 4623 (0x120F)
Format                                   : PGS
Muxing mode                              : zlib
Codec ID                                 : S_HDMV/PGS
Codec ID/Info                            : Picture based subtitle format used on BDs/HD-DVDs
Duration                                 : 1 h 51 min
Bit rate                                 : 39.3 kb/s
Frame rate                               : 0.498 FPS
Count of elements                        : 3322
Stream size                              : 31.2 MiB (0%)
Language                                 : Chinese
Default                                  : Yes
Forced                                   : No
Original source medium                   : Blu-ray
Text #5
ID                                       : 9
ID in the original source medium         : 4627 (0x1213)
Format                                   : PGS
Muxing mode                              : zlib
Codec ID                                 : S_HDMV/PGS
Codec ID/Info                            : Picture based subtitle format used on BDs/HD-DVDs
Duration                                 : 1 h 45 min
Bit rate                                 : 71.6 kb/s
Frame rate                               : 0.965 FPS
Count of elements                        : 6115
Stream size                              : 54.1 MiB (0%)
Language                                 : Chinese
Default                                  : Yes
Forced                                   : No
Original source medium                   : Blu-ray
Text #6
ID                                       : 10
ID in the original source medium         : 4628 (0x1214)
Format                                   : PGS
Muxing mode                              : zlib
Codec ID                                 : S_HDMV/PGS
Codec ID/Info                            : Picture based subtitle format used on BDs/HD-DVDs
Duration                                 : 1 h 45 min
Bit rate                                 : 73.2 kb/s
Frame rate                               : 0.965 FPS
Count of elements                        : 6115
Stream size                              : 55.3 MiB (0%)
Language                                 : Chinese
Default                                  : Yes
Forced                                   : No
Original source medium                   : Blu-ray
Text #7
ID                                       : 11
ID in the original source medium         : 4629 (0x1215)
Format                                   : PGS
Muxing mode                              : zlib
Codec ID                                 : S_HDMV/PGS
Codec ID/Info                            : Picture based subtitle format used on BDs/HD-DVDs
Duration                                 : 1 h 45 min
Bit rate                                 : 87.0 kb/s
Frame rate                               : 0.894 FPS
Count of elements                        : 5665
Stream size                              : 65.7 MiB (0%)
Language                                 : Chinese
Default                                  : Yes
Forced                                   : No
Original source medium                   : Blu-ray
Text #8
ID                                       : 12
ID in the original source medium         : 4630 (0x1216)
Format                                   : PGS
Muxing mode                              : zlib
Codec ID                                 : S_HDMV/PGS
Codec ID/Info                            : Picture based subtitle format used on BDs/HD-DVDs
Duration                                 : 1 h 45 min
Bit rate                                 : 88.4 kb/s
Frame rate                               : 0.894 FPS
Count of elements                        : 5665
Stream size                              : 66.8 MiB (0%)
Language                                 : Chinese
Default                                  : Yes
Forced                                   : No
Original source medium                   : Blu-ray
Menu
00:00:00.000                             : en:Chapter 01
00:11:26.727                             : en:Chapter 02
00:19:31.670                             : en:Chapter 03
00:26:55.572                             : en:Chapter 04
00:33:43.312                             : en:Chapter 05
00:41:30.029                             : en:Chapter 06
00:50:29.943                             : en:Chapter 07
01:02:19.193                             : en:Chapter 08
01:13:31.073                             : en:Chapter 09
01:23:19.285                             : en:Chapter 10
01:34:35.252                             : en:Chapter 11
01:44:53.620                             : en:Chapter 12
部分资源为软字幕,移动端推荐播放器:MxPlayer,nPlayer,infuse ,其他播放器请自行尝试。
部分资源为软字幕,电脑端推荐播放器:PotPlayer,完美解码,KMPLAYER,其他播放器请自行尝试。
下载端推荐纯BT下载软件:qBittorrent,Bitcomet,uTorrent ,其他下载软件请自行尝试。不支持吸血迅雷。






~~~~~~~~~~~~~~~~~~~~~~~~~~~~~~~~~~~~~~~~~
[2022][欧美][喜剧][BD-1080P]迷失之城[国英多音轨/中文字幕/特效字幕].2022.V3.BluRay.REMUX.1080p.AVC.Atmos.TrueHD7.1.3Audio-Drea

【文件列表】:


2022.V3.BluRay.REMUX.1080p.AVC.Atmos.TrueHD7.1.3Audio-DreamHD.



【下载地址列表】:


游客
文件下载链接就在这里,在您回复评论成功后才能显示。
请勿回复无意义的灌水内容。


下拉页面到最底部回复或者【点击此处快捷回复】,回复后返回此处即可查看下载链接。
如您没注册本站会员,可以点击注册本站,注册后即可回复下载。



软字幕无法在截图上展现,HDR版本/杜比视界版本截图会出现颜色异常,请使用支持的设备播放!






[img][/img]






[img][/img]

(HDR版本/杜比视界版本,截图会出现颜色异常,请使用支持的设备播放)

小贴士:【影视自媒体解说文案请移步:夏至文案解说网 www.xiazhi.vip

上一篇:[更 早][日本][剧情][BD-4K]犬神家族[中文字幕].The.Inugami.Family.1976.UHD.BluRay.REMUX.2160p.HEVC.HDR.LPCM2.0-Dream
下一篇:[2022][欧美][剧情][BD-1080P]套装[简繁英双语特效字幕].The.Outfit.2022.V2.BluRay.REMUX.AVC.1080p.DTS-HDMA5.1- 29.8
回复

使用道具 举报

您需要登录后才可以回帖 登录 | 立即注册

本版积分规则

Archiver|手机版|小众纪录片影视聚合

GMT+8, 2024-7-25 03:11 , Processed in 0.105078 second(s), 14 queries , Gzip On, Redis On.

Powered by 小众纪录片影视聚合 @2010-2023

Copyright © 2010-2024, https://www.xzjlp.com/.


免责说明:本站所有内容链接、图文介绍等均来自于互联网网友分享,本站仅支持web页面展示和文字介绍,绝不提供在线观看和存储服务,也不参与录制、上传、压片。若本站收录内容无意侵犯贵司版权,请发邮件到【a885185#163.com】联系本站,我们将在第一时间删除侵权内容。谢谢!

快速回复 返回顶部 返回列表