小众纪录片影视聚合

 找回密码
 立即注册
查看: 15|回复: 0

[蓝光电影] [2022][欧美][剧情][BD-1080P]套装[简繁英双语特效字幕].The.Outfit.2022.V2.BluRay.REMUX.AVC.1080p.DTS-HDMA5.1- 29.8

[复制链接]

116万

主题

116万

帖子

116万

积分

超级版主

Rank: 8Rank: 8

积分
1167997
发表于 2024-7-9 21:54:22 | 显示全部楼层 |阅读模式


[2022][欧美][剧情][BD-1080P]套装[简繁英双语特效字幕].The.Outfit.2022.V2.BluRay.REMUX.AVC.1080p.DTS-HDMA5.1- 29.8

完整标题:套装[简繁英双语特效字幕].The.Outfit.2022.V2.BluRay.REMUX.AVC.1080p.DTS-HDMA5.1-DreamHD 29.82GB
◎标  题 套装
◎译  名 誓不低头 / 致命装备(台)
◎片  名 The Outfit
◎年  代 2022
◎产  地 美国
◎类  别 剧情 / 惊悚 / 犯罪
◎语  言 英语
◎上映日期 2022-02-14(柏林电影节) / 2022-03-18(美国)
◎IMDb评分 7.2/10 (71285人评价)
◎IMDb链接 https://www.imdb.com/title/tt14114802/
◎豆瓣评分 7.9/10 (98134人评价)
◎豆瓣链接 https://movie.douban.com/subject/35372415/
◎片  长 106分钟
◎导  演 格拉汉姆·摩尔 Graham Moore
◎编  剧 乔纳森·麦克莱恩 Johnathan McClain
       格拉汉姆·摩尔 Graham Moore
◎演  员 马克·里朗斯 Mark Rylance
       西蒙·拉塞尔·比尔 Simon Russell Beale
       强尼·弗林 Johnny Flynn
       妮基·阿姆卡-伯德 Nikki Amuka-Bird
       佐伊·达奇 Zoey Deutch
       阿伦·梅迪扎德 Alan Mehdizadeh
       迪伦·奥布莱恩 Dylan O'Brien
       乔纳森·麦克莱恩 Johnathan McClain
        John Gumley-Mason
        Stephen Knox
        Steve Chatfield
        Michal Forejtek
        Lauris Karklins
        William Keetch
        Scoop Wasserstein
        Ryan Hall
        Chiedu Agborh
        Michael Addo
◎简  介
    雷纳德(马克·里朗斯 Mark Rylance 饰)是一位手艺精湛的裁缝,一场火灾之后,他离开了伦敦,来到芝加哥,在这里经营着一间属于自己的裁缝店。店里的员工除了雷纳德自己外,还有一个名叫梅布尔(佐伊·达奇 Zoey Deutch 饰)的姑娘,梅布尔的父亲是一个臭名昭著的恶棍,背负着父亲的“盛名”,梅布尔下定决心要攒够钱,去看一看这个肮脏黑暗的街区以外的世界。                                    一天深夜,黑帮大佬罗伊(西蒙·拉塞尔·比尔 Simon Russell Beale 饰)的儿子里奇(迪伦·奥布莱恩 Dylan O'Brien 饰)和他的副手弗朗西斯(强尼·弗林 Johnny Flynn 饰)闯入了店中,里奇身受重伤,在弗朗西斯的威胁之下,雷纳德处理了里奇的伤口,将他从死亡线上救了回来,但与此同时,他也被卷入了这个黑帮家族的纷争之中。##### MediaInfo ######
General
Unique ID                                : 26548430868726560356701847319082118069 (0x13F90AB3511AF1E1C6D049FF87832BB5)
Complete name                            : The Outfit 2022 V2 BluRay REMUX AVC 1080p DTS-HDMA5.1-DreamHD.mkv
Duration                                 : 1 h 44 min
Overall bit rate mode                    : Variable
Overall bit rate                         : 40.7 Mb/s
Video
ID                                       : 1
ID in the original source medium         : 4113 (0x1011)
Format                                   : AVC
Format/Info                              : Advanced Video Codec
Format profile                           : [email protected]
Format settings                          : CABAC / 2 Ref Frames
Format settings, CABAC                   : Yes
Format settings, Reference frames        : 2 frames
Format settings, GOP                     : M=1, N=10
Codec ID                                 : V_MPEG4/ISO/AVC
Duration                                 : 1 h 44 min
Bit rate mode                            : Variable
Bit rate                                 : 36.7 Mb/s
Width                                    : 1 920 pixels
Height                                   : 1 080 pixels
Display aspect ratio                     : 16:9
Frame rate mode                          : Constant
Frame rate                               : 23.976 (24000/1001) FPS
Color space                              : YUV
Chroma subsampling                       : 4:2:0
Bit depth                                : 8 bits
Scan type                                : Progressive
Bits/(Pixel*Frame)                       : 0.739
Stream size                              : 26.9 GiB (90%)
Default                                  : Yes
Forced                                   : No
Original source medium                   : Blu-ray
Audio #1
ID                                       : 2
ID in the original source medium         : 4352 (0x1100)
Format                                   : DTS XLL
Format/Info                              : Digital Theater Systems
Commercial name                          : DTS-HD Master Audio
Codec ID                                 : A_DTS
Duration                                 : 1 h 44 min
Bit rate mode                            : Variable
Bit rate                                 : 3 357 kb/s
Channel(s)                               : 6 channels
Channel layout                           : C L R Ls Rs LFE
Sampling rate                            : 48.0 kHz
Frame rate                               : 93.750 FPS (512 SPF)
Bit depth                                : 24 bits
Compression mode                         : Lossless
Stream size                              : 2.46 GiB (8%)
Language                                 : English
Default                                  : Yes
Forced                                   : No
Original source medium                   : Blu-ray
Audio #2
ID                                       : 3
ID in the original source medium         : 4355 (0x1103)
Format                                   : AC-3
Format/Info                              : Audio Coding 3
Commercial name                          : Dolby Digital
Codec ID                                 : A_AC3
Duration                                 : 1 h 44 min
Bit rate mode                            : Constant
Bit rate                                 : 192 kb/s
Channel(s)                               : 2 channels
Channel layout                           : L R
Sampling rate                            : 48.0 kHz
Frame rate                               : 31.250 FPS (1536 SPF)
Compression mode                         : Lossy
Stream size                              : 144 MiB (0%)
Title                                    : 导评音轨
Language                                 : English
Service kind                             : Complete Main
Default                                  : Yes
Forced                                   : No
Original source medium                   : Blu-ray
Text #1
ID                                       : 4
ID in the original source medium         : 4608 (0x1200)
Format                                   : PGS
Codec ID                                 : S_HDMV/PGS
Codec ID/Info                            : Picture based subtitle format used on BDs/HD-DVDs
Duration                                 : 1 h 39 min
Bit rate                                 : 43.6 kb/s
Frame rate                               : 0.476 FPS
Count of elements                        : 2838
Stream size                              : 31.0 MiB (0%)
Language                                 : English
Default                                  : Yes
Forced                                   : No
Original source medium                   : Blu-ray
Text #2
ID                                       : 5
ID in the original source medium         : 4609 (0x1201)
Format                                   : PGS
Codec ID                                 : S_HDMV/PGS
Codec ID/Info                            : Picture based subtitle format used on BDs/HD-DVDs
Duration                                 : 1 h 44 min
Bit rate                                 : 33.0 kb/s
Frame rate                               : 0.384 FPS
Count of elements                        : 2408
Stream size                              : 24.6 MiB (0%)
Language                                 : Spanish
Default                                  : Yes
Forced                                   : No
Original source medium                   : Blu-ray
Text #3
ID                                       : 6
ID in the original source medium         : 4610 (0x1202)
Format                                   : PGS
Codec ID                                 : S_HDMV/PGS
Codec ID/Info                            : Picture based subtitle format used on BDs/HD-DVDs
Duration                                 : 1 h 44 min
Bit rate                                 : 35.9 kb/s
Frame rate                               : 0.388 FPS
Count of elements                        : 2432
Stream size                              : 26.8 MiB (0%)
Language                                 : French
Default                                  : Yes
Forced                                   : No
Original source medium                   : Blu-ray
Text #4
ID                                       : 7
ID in the original source medium         : 4611 (0x1203)
Format                                   : PGS
Codec ID                                 : S_HDMV/PGS
Codec ID/Info                            : Picture based subtitle format used on BDs/HD-DVDs
Duration                                 : 1 h 39 min
Bit rate                                 : 39.6 kb/s
Frame rate                               : 0.428 FPS
Count of elements                        : 2553
Stream size                              : 28.2 MiB (0%)
Title                                    : 简体中文
Language                                 : Chinese
Default                                  : Yes
Forced                                   : No
Original source medium                   : Blu-ray
Text #5
ID                                       : 8
ID in the original source medium         : 4612 (0x1204)
Format                                   : PGS
Codec ID                                 : S_HDMV/PGS
Codec ID/Info                            : Picture based subtitle format used on BDs/HD-DVDs
Duration                                 : 1 h 39 min
Bit rate                                 : 39.2 kb/s
Frame rate                               : 0.428 FPS
Count of elements                        : 2553
Stream size                              : 27.9 MiB (0%)
Title                                    : 繁体中文
Language                                 : Chinese
Default                                  : Yes
Forced                                   : No
Original source medium                   : Blu-ray
Text #6
ID                                       : 9
ID in the original source medium         : 4613 (0x1205)
Format                                   : PGS
Codec ID                                 : S_HDMV/PGS
Codec ID/Info                            : Picture based subtitle format used on BDs/HD-DVDs
Duration                                 : 1 h 39 min
Bit rate                                 : 74.7 kb/s
Frame rate                               : 0.428 FPS
Count of elements                        : 2553
Stream size                              : 53.1 MiB (0%)
Title                                    : 简英双语
Language                                 : Chinese
Default                                  : Yes
Forced                                   : No
Original source medium                   : Blu-ray
Text #7
ID                                       : 10
ID in the original source medium         : 4614 (0x1206)
Format                                   : PGS
Codec ID                                 : S_HDMV/PGS
Codec ID/Info                            : Picture based subtitle format used on BDs/HD-DVDs
Duration                                 : 1 h 39 min
Bit rate                                 : 74.3 kb/s
Frame rate                               : 0.428 FPS
Count of elements                        : 2553
Stream size                              : 52.8 MiB (0%)
Title                                    : 繁英双语
Language                                 : Chinese
Default                                  : Yes
Forced                                   : No
Original source medium                   : Blu-ray
Text #8
ID                                       : 11
Format                                   : PGS
Codec ID                                 : S_HDMV/PGS
Codec ID/Info                            : Picture based subtitle format used on BDs/HD-DVDs
Duration                                 : 1 h 39 min
Bit rate                                 : 70.2 kb/s
Frame rate                               : 0.520 FPS
Count of elements                        : 3103
Stream size                              : 50.0 MiB (0%)
Title                                    : 简英双语特效字幕
Language                                 : Chinese
Default                                  : Yes
Forced                                   : No
Menu
00:00:00.000                             : en:第 01 章
00:05:45.928                             : en:第 02 章
00:10:16.073                             : en:第 03 章
00:15:10.659                             : en:第 04 章
00:18:41.745                             : en:第 05 章
00:20:57.130                             : en:第 06 章
00:28:42.429                             : en:第 07 章
00:32:40.583                             : en:第 08 章
00:36:29.353                             : en:第 09 章
00:40:48.988                             : en:第 10 章
00:43:23.976                             : en:第 11 章
00:50:55.886                             : en:第 12 章
00:57:51.384                             : en:第 13 章
01:04:17.270                             : en:第 14 章
01:09:23.325                             : en:第 15 章
01:14:58.410                             : en:第 16 章
01:21:42.480                             : en:第 17 章
01:27:56.980                             : en:第 18 章
01:32:29.669                             : en:第 19 章
01:39:29.338                             : en:第 20 章
部分资源为软字幕,移动端推荐播放器:MxPlayer,nPlayer,infuse ,其他播放器请自行尝试。
部分资源为软字幕,电脑端推荐播放器:PotPlayer,完美解码,KMPLAYER,其他播放器请自行尝试。
下载端推荐纯BT下载软件:qBittorrent,Bitcomet,uTorrent ,其他下载软件请自行尝试。不支持吸血迅雷。






~~~~~~~~~~~~~~~~~~~~~~~~~~~~~~~~~~~~~~~~~
[2022][欧美][剧情][BD-1080P]套装[简繁英双语特效字幕].The.Outfit.2022.V2.BluRay.REMUX.AVC.1080p.DTS-HDMA5.1- 29.8

【文件列表】:


The.Outfit.2022.V2.BluRay.REMUX.AVC.1080p.DTS-HDMA5.1-DreamHD.



【下载地址列表】:


游客
文件下载链接就在这里,在您回复评论成功后才能显示。
请勿回复无意义的灌水内容。


下拉页面到最底部回复或者【点击此处快捷回复】,回复后返回此处即可查看下载链接。
如您没注册本站会员,可以点击注册本站,注册后即可回复下载。



软字幕无法在截图上展现,HDR版本/杜比视界版本截图会出现颜色异常,请使用支持的设备播放!






[img][/img]






[img][/img]

(HDR版本/杜比视界版本,截图会出现颜色异常,请使用支持的设备播放)

小贴士:【影视自媒体解说文案请移步:夏至文案解说网 www.xiazhi.vip

上一篇:[2022][欧美][喜剧][BD-1080P]迷失之城[国英多音轨/中文字幕/特效字幕].2022.V3.BluRay.REMUX.1080p.AVC.Atmos.TrueHD7.1.3Audio-Drea
下一篇:[更 早][其它][剧情][BD-4K]钢琴课[国英多音轨/中英字幕].The.Piano.1993.CC.V2.UHD.BluRay.REMUX.2160p.HEVC.DTS-HD.MA5.1.3A
回复

使用道具 举报

您需要登录后才可以回帖 登录 | 立即注册

本版积分规则

Archiver|手机版|小众纪录片影视聚合

GMT+8, 2024-7-24 22:42 , Processed in 3.285490 second(s), 11 queries , Gzip On, Redis On.

Powered by 小众纪录片影视聚合 @2010-2023

Copyright © 2010-2024, https://www.xzjlp.com/.


免责说明:本站所有内容链接、图文介绍等均来自于互联网网友分享,本站仅支持web页面展示和文字介绍,绝不提供在线观看和存储服务,也不参与录制、上传、压片。若本站收录内容无意侵犯贵司版权,请发邮件到【a885185#163.com】联系本站,我们将在第一时间删除侵权内容。谢谢!

快速回复 返回顶部 返回列表