小众纪录片影视聚合

 找回密码
 立即注册
查看: 14|回复: 0

[蓝光电影] [更 早][其它][剧情][BD-4K]钢琴课[国英多音轨/中英字幕].The.Piano.1993.CC.V2.UHD.BluRay.REMUX.2160p.HEVC.DTS-HD.MA5.1.3A

[复制链接]

112万

主题

112万

帖子

112万

积分

超级版主

Rank: 8Rank: 8

积分
1128817
发表于 7 天前 | 显示全部楼层 |阅读模式


[更 早][其它][剧情][BD-4K]钢琴课[国英多音轨/中英字幕].The.Piano.1993.CC.V2.UHD.BluRay.REMUX.2160p.HEVC.DTS-HD.MA5.1.3A

完整标题:钢琴课[国英多音轨/中英字幕].The.Piano.1993.CC.V2.UHD.BluRay.REMUX.2160p.HEVC.DTS-HD.MA5.1.3Audio-DreamHD 67.30GB
◎标  题 钢琴课
◎译  名 钢琴别恋(港) / 钢琴师和她的情人(台) / 奇情孽恋 / Piano
◎片  名 The Piano
◎年  代 1993
◎产  地 新西兰 / 澳大利亚 / 法国
◎类  别 剧情 / 爱情 / 音乐
◎语  言 英语 / 英国手语 / 毛利语
◎上映日期 1993-05-17(戛纳电影节) / 1993-05-19(法国) / 1993-08-05(澳大利亚)
◎IMDb评分 7.5/10 (91246人评价)
◎IMDb链接 https://www.imdb.com/title/tt0107822/
◎豆瓣评分 8.1/10 (91241人评价)
◎豆瓣链接 https://movie.douban.com/subject/1293818/
◎片  长 121分钟
◎导  演 简·坎皮恩 Jane Campion
◎编  剧 简·坎皮恩 Jane Campion
◎演  员 霍利·亨特 Holly Hunter
       哈威·凯特尔 Harvey Keitel
       山姆·尼尔 Sam Neill
       安娜·帕奎因 Anna Paquin
       克利夫·柯蒂斯 Cliff Curtis
       克里·沃克 Kerry Walker
       吉娜维夫·莱蒙 Geneviève Lemon
       伊恩·穆内 Ian Mune
       佩特·史密斯 Pete Smith
       布鲁克·奥佩斯 Bruce Allpress
       罗丝·麦克莱弗 Rose McIver
       迈克尔·尼曼 Michael Nyman
       斯蒂芬·帕普斯 Stephen Papps
       Guy Moana Guy Moana
       Jon Brazier Jon Brazier
       户田惠子 Keiko Toda
◎简  介
    苏格兰单身母亲艾达·麦格拉斯(霍利·亨特 饰)自六岁起就放弃了讲话,只通过钢琴倾诉满腔情感。1852年,麦格拉斯远嫁新西兰的斯图尔特(山姆·尼尔 饰),将钢琴也一并带了去。可是斯图尔特人手不够,只得将笨重的钢琴遗弃海滩。斯图尔特之友乔治·贝恩斯(哈维·凯特尔 饰)爱上了麦格拉斯,用八十英亩土地与斯图尔特交易。斯图尔特转让了钢琴,并命麦格拉斯教贝恩斯奏琴。钢琴课上,贝恩斯提议,如果麦格拉斯在教琴的时候允许某些出格的事情发生,一次课便可换回一个琴键……##### MediaInfo ######
General
Unique ID                                : 234796429882366379591031305531027915534 (0xB0A425C383BFD56478153BBFB528830E)
Complete name                            : The Piano 1993 CC V2 UHD BluRay REMUX 2160p HEVC DTS-HD MA5.1 3Audio-DreamHD.mkv
Duration                                 : 2 h 0 min
Overall bit rate mode                    : Variable
Overall bit rate                         : 79.7 Mb/s
Video
ID                                       : 1
ID in the original source medium         : 4113 (0x1011)
Format                                   : HEVC
Format/Info                              : High Efficiency Video Coding
Format profile                           : Main [email protected]@High
HDR format                               : SMPTE ST 2086, HDR10 compatible
Codec ID                                 : V_MPEGH/ISO/HEVC
Duration                                 : 2 h 0 min
Bit rate                                 : 76.4 Mb/s
Width                                    : 3 840 pixels
Height                                   : 2 160 pixels
Display aspect ratio                     : 16:9
Frame rate mode                          : Constant
Frame rate                               : 23.976 (24000/1001) FPS
Color space                              : YUV
Chroma subsampling                       : 4:2:0 (Type 2)
Bit depth                                : 10 bits
Bits/(Pixel*Frame)                       : 0.384
Stream size                              : 64.5 GiB (96%)
Default                                  : Yes
Forced                                   : No
Color range                              : Limited
Color primaries                          : BT.2020
Transfer characteristics                 : PQ
Matrix coefficients                      : BT.2020 non-constant
Mastering display color primaries        : BT.2020
Mastering display luminance              : min: 0.0001 cd/m2, max: 1000 cd/m2
Maximum Content Light Level              : 1000 cd/m2
Maximum Frame-Average Light Level        : 86 cd/m2
Original source medium                   : Blu-ray
Audio #1
ID                                       : 2
ID in the original source medium         : 4352 (0x1100)
Format                                   : DTS XLL
Format/Info                              : Digital Theater Systems
Commercial name                          : DTS-HD Master Audio
Codec ID                                 : A_DTS
Duration                                 : 2 h 0 min
Bit rate mode                            : Variable
Bit rate                                 : 2 887 kb/s
Channel(s)                               : 6 channels
Channel layout                           : C L R Ls Rs LFE
Sampling rate                            : 48.0 kHz
Frame rate                               : 93.750 FPS (512 SPF)
Bit depth                                : 24 bits
Compression mode                         : Lossless
Stream size                              : 2.44 GiB (4%)
Language                                 : English
Default                                  : Yes
Forced                                   : No
Original source medium                   : Blu-ray
Audio #2
ID                                       : 3
ID in the original source medium         : 4353 (0x1101)
Format                                   : AC-3
Format/Info                              : Audio Coding 3
Commercial name                          : Dolby Digital
Codec ID                                 : A_AC3
Duration                                 : 2 h 0 min
Bit rate mode                            : Constant
Bit rate                                 : 192 kb/s
Channel(s)                               : 2 channels
Channel layout                           : L R
Sampling rate                            : 48.0 kHz
Frame rate                               : 31.250 FPS (1536 SPF)
Compression mode                         : Lossy
Stream size                              : 166 MiB (0%)
Language                                 : Chinese
Service kind                             : Complete Main
Default                                  : Yes
Forced                                   : No
Original source medium                   : Blu-ray
Audio #3
ID                                       : 4
ID in the original source medium         : 4354 (0x1102)
Format                                   : AC-3
Format/Info                              : Audio Coding 3
Commercial name                          : Dolby Digital
Codec ID                                 : A_AC3
Duration                                 : 2 h 0 min
Bit rate mode                            : Constant
Bit rate                                 : 192 kb/s
Channel(s)                               : 2 channels
Channel layout                           : L R
Sampling rate                            : 48.0 kHz
Frame rate                               : 31.250 FPS (1536 SPF)
Compression mode                         : Lossy
Stream size                              : 166 MiB (0%)
Language                                 : Chinese
Service kind                             : Complete Main
Default                                  : Yes
Forced                                   : No
Original source medium                   : Blu-ray
Text #1
ID                                       : 5
ID in the original source medium         : 4769 (0x12A1)
Format                                   : PGS
Muxing mode                              : zlib
Codec ID                                 : S_HDMV/PGS
Codec ID/Info                            : Picture based subtitle format used on BDs/HD-DVDs
Duration                                 : 1 h 54 min
Bit rate                                 : 28.9 kb/s
Frame rate                               : 0.286 FPS
Count of elements                        : 1970
Stream size                              : 23.8 MiB (0%)
Language                                 : English
Default                                  : Yes
Forced                                   : No
Original source medium                   : Blu-ray
Text #2
ID                                       : 6
ID in the original source medium         : 4770 (0x12A2)
Format                                   : PGS
Muxing mode                              : zlib
Codec ID                                 : S_HDMV/PGS
Codec ID/Info                            : Picture based subtitle format used on BDs/HD-DVDs
Duration                                 : 1 h 56 min
Bit rate                                 : 31.7 kb/s
Frame rate                               : 0.343 FPS
Count of elements                        : 2396
Stream size                              : 26.4 MiB (0%)
Language                                 : Chinese
Default                                  : Yes
Forced                                   : No
Original source medium                   : Blu-ray
Text #3
ID                                       : 7
ID in the original source medium         : 4771 (0x12A3)
Format                                   : PGS
Muxing mode                              : zlib
Codec ID                                 : S_HDMV/PGS
Codec ID/Info                            : Picture based subtitle format used on BDs/HD-DVDs
Duration                                 : 1 h 56 min
Bit rate                                 : 37.7 kb/s
Frame rate                               : 0.357 FPS
Count of elements                        : 2490
Stream size                              : 31.3 MiB (0%)
Language                                 : Chinese
Default                                  : Yes
Forced                                   : No
Original source medium                   : Blu-ray
Text #4
ID                                       : 8
ID in the original source medium         : 4772 (0x12A4)
Format                                   : PGS
Muxing mode                              : zlib
Codec ID                                 : S_HDMV/PGS
Codec ID/Info                            : Picture based subtitle format used on BDs/HD-DVDs
Duration                                 : 1 h 56 min
Bit rate                                 : 44.7 kb/s
Frame rate                               : 0.346 FPS
Count of elements                        : 2414
Stream size                              : 37.2 MiB (0%)
Language                                 : Chinese
Default                                  : Yes
Forced                                   : No
Original source medium                   : Blu-ray
Text #5
ID                                       : 9
ID in the original source medium         : 4773 (0x12A5)
Format                                   : PGS
Muxing mode                              : zlib
Codec ID                                 : S_HDMV/PGS
Codec ID/Info                            : Picture based subtitle format used on BDs/HD-DVDs
Duration                                 : 1 h 56 min
Bit rate                                 : 42.1 kb/s
Frame rate                               : 0.338 FPS
Count of elements                        : 2359
Stream size                              : 35.0 MiB (0%)
Language                                 : Chinese
Default                                  : Yes
Forced                                   : No
Original source medium                   : Blu-ray
Menu
00:00:00.000                             : en:Chapter 01
00:04:02.659                             : en:Chapter 02
00:09:10.967                             : en:Chapter 03
00:16:30.572                             : en:Chapter 04
00:21:44.928                             : en:Chapter 05
00:31:32.557                             : en:Chapter 06
00:37:54.397                             : en:Chapter 07
00:44:53.649                             : en:Chapter 08
00:55:03.800                             : en:Chapter 09
01:00:22.243                             : en:Chapter 10
01:09:14.400                             : en:Chapter 11
01:21:40.186                             : en:Chapter 12
01:31:12.508                             : en:Chapter 13
01:40:55.758                             : en:Chapter 14
01:47:03.041                             : en:Chapter 15
01:54:05.755                             : en:Chapter 16
01:56:30.817                             : en:Chapter 17
部分资源为软字幕,移动端推荐播放器:MxPlayer,nPlayer,infuse ,其他播放器请自行尝试。
部分资源为软字幕,电脑端推荐播放器:PotPlayer,完美解码,KMPLAYER,其他播放器请自行尝试。
下载端推荐纯BT下载软件:qBittorrent,Bitcomet,uTorrent ,其他下载软件请自行尝试。不支持吸血迅雷。






~~~~~~~~~~~~~~~~~~~~~~~~~~~~~~~~~~~~~~~~~
[更 早][其它][剧情][BD-4K]钢琴课[国英多音轨/中英字幕].The.Piano.1993.CC.V2.UHD.BluRay.REMUX.2160p.HEVC.DTS-HD.MA5.1.3A

【文件列表】:


The.Piano.1993.CC.V2.UHD.BluRay.REMUX.2160p.HEVC.DTS-HD.MA5.1.3Audio-DreamH...



【下载地址列表】:


游客
文件下载链接就在这里,在您回复评论成功后才能显示。
请勿回复无意义的灌水内容。


下拉页面到最底部回复或者【点击此处快捷回复】,回复后返回此处即可查看下载链接。
如您没注册本站会员,可以点击注册本站,注册后即可回复下载。



软字幕无法在截图上展现,HDR版本/杜比视界版本截图会出现颜色异常,请使用支持的设备播放!






[img][/img]






[img][/img]

(HDR版本/杜比视界版本,截图会出现颜色异常,请使用支持的设备播放)

小贴士:【影视自媒体解说文案请移步:夏至文案解说网 www.xiazhi.vip

上一篇:[2022][欧美][剧情][BD-1080P]套装[简繁英双语特效字幕].The.Outfit.2022.V2.BluRay.REMUX.AVC.1080p.DTS-HDMA5.1- 29.8
下一篇:[2023][欧美][动作][WEB-1080P]绝望之路[中文字幕].Desperation.Road.2023.1080p.MyVideo.WEB-DL.AAC.2.0.H.264- 3.53
回复

使用道具 举报

您需要登录后才可以回帖 登录 | 立即注册

本版积分规则

Archiver|手机版|小众纪录片影视聚合

GMT+8, 2024-7-16 23:41 , Processed in 0.074953 second(s), 12 queries , Gzip On, Redis On.

Powered by 小众纪录片影视聚合 @2010-2023

Copyright © 2010-2024, https://www.xzjlp.com/.


免责说明:本站所有内容链接、图文介绍等均来自于互联网网友分享,本站仅支持web页面展示和文字介绍,绝不提供在线观看和存储服务,也不参与录制、上传、压片。若本站收录内容无意侵犯贵司版权,请发邮件到【a885185#163.com】联系本站,我们将在第一时间删除侵权内容。谢谢!

快速回复 返回顶部 返回列表